Морские дьяволы. Рубежи Родины / Серии: 1-10 из 24 (Александр Картохин) [2018, боевик, криминал, приключения, WEBRip]

Страницы:  1

Ответить
Автор
Сообщение

Pigy

RG Русские сериалы

Стаж: 9 лет 11 месяцев

Сообщений: 3104

Pigy · 08-Сен-18 09:49 (1 месяц 11 дней назад, ред. 05-Окт-18 23:25)

Морские дьяволы. Рубежи Родины
Год выпуска: 2018
Производство: Гамма Продакшн
Жанр: боевик, криминал, приключения
Продолжительность: ~00:50:00 серия
Субтитры: нет
Режиссёр: Александр Картохин
В ролях: Олег Чернов, Дарья Юргенс, Иван Паршин, Антон Гуляев, Александра Большакова, Виталий Бисеров, Антон Багров, Марина Доможирова, Снежана Прудько, Кристина Оленникова, Руслан Ягудин, Александр Удальцов, Антон Чернов, Юлия Кудояр, Михаил Куряев, Владимир Потапов, Юлия Полынская, Роман Притула, Евгений Щербаков

Описание: Из северных приграничных регионов отряд «НЕРПЫ» перебрасывается на секретную военную базу, местоположение которой строго засекречено, и каждое задание «НЕРП» – это боевой вылет (выезд) к месту проведения операции в разных уголках нашей страны. «Нерпами» по-прежнему командуют Бизон, Батя и Багира. В составе отряда: Кот, Сармат, Дана, Агата и Опер. Новые сюжеты развиваются в современных реалиях, в контексте, близком к сегодняшней геополитической ситуации, на фоне основных международных конфликтов, в том числе в информационной среде. В данном сезоне герои попадают в ещё более реалистичные и экстремальные ситуации. В основе каждого нового фильма по-прежнему остается остросюжетная детективная история.

Реклама: Нет.
Кинопоиск
Все раздачи сериала
Sample
Качество: WEBRip - Files-x
Формат: AVI
Видео кодек: XviD
Аудио кодек: AC3
Видео: 720x400 (1.80:1), 25 fps, XviD build 73 ~1500 kbps avg, 0.208 bit/pixel
Аудио: 48.0 kHz, AC3 Dolby Digital, 2/0 (L,R) ch, ~ 192 kbps
Внимание! Раздача ведётся путём добавления новых серий
Раздача ведётся путём добавления новых серий, при каждом добавлении создаётся новый торрент. Чтобы начать докачку новой серии, пользователям необходимо сделать следующее:
- Остановить скачивание.
- Удалить старый торрент у себя из клиента (старые серии удалять не надо).
- Скачать новый торрент и запустить его у себя в клиенте вместо старого, при этом указать клиенту путь в старую папку куда и должно происходить скачивание новых серий.
Ваш клиент при этом должен произвести хеширование (проверку) старой папки (если не производит сам - помогите ему сделать это), и будет докачивать только те серии которых у вас ещё нет. Старые серии при этом не удаляются, а продолжают раздаваться!
Если вы уже удалили старые серии, то предотвратить повторную закачку старых серий можно, отжав галочку в соответствующих местах при запуске нового торрента. По возможности, желательно не удалять старые серии как можно дольше, чтобы релизер не столько продолжал раздавать старые серии, а смог сконцентрироваться на новых.
MI
General
Complete name : D:\Морские дьяволы. Рубежи родины.2018.WEB-DLRip.Files-x\01.Морские дьяволы. Рубежи родины.2018.WEB-DLRip.Files-x.avi
Format : AVI
Format/Info : Audio Video Interleave
File size : 607 MiB
Duration : 50 min 0 s
Overall bit rate : 1 698 kb/s
Writing application : VirtualDubMod 1.5.10.3 | www.virtualdub-fr.org || (build 2550/release)
Writing library : VirtualDubMod build 2550/release
Video
ID : 0
Format : MPEG-4 Visual
Format profile : Advanced [email protected]
Format settings : BVOP1 / Custom Matrix
Format settings, BVOP : 1
Format settings, QPel : No
Format settings, GMC : No warppoints
Format settings, Matrix : Custom
Codec ID : XVID
Codec ID/Hint : XviD
Duration : 50 min 0 s
Bit rate : 1 496 kb/s
Width : 720 pixels
Height : 400 pixels
Display aspect ratio : 16:9
Frame rate : 25.000 FPS
Color space : YUV
Chroma subsampling : 4:2:0
Bit depth : 8 bits
Scan type : Progressive
Compression mode : Lossy
Bits/(Pixel*Frame) : 0.208
Stream size : 535 MiB (88%)
Writing library : XviD 73
Audio
ID : 1
Format : AC-3
Format/Info : Audio Coding 3
Codec ID : 2000
Duration : 50 min 0 s
Bit rate mode : Constant
Bit rate : 192 kb/s
Channel(s) : 2 channels
Channel positions : Front: L R
Sampling rate : 48.0 kHz
Frame rate : 31.250 FPS (1536 SPF)
Bit depth : 16 bits
Compression mode : Lossy
Stream size : 68.7 MiB (11%)
Alignment : Split accross interleaves
Interleave, duration : 40 ms (1.00 video frame)
Interleave, preload duratio : 500 ms
Service kind : Complete Main
Скриншоты
Download
Чтобы скачать .torrent файл необходима регистрация
Сайт не распространяет и не хранит электронные версии произведений, а лишь предоставляет доступ к создаваемому пользователями каталогу ссылок на торрент-файлы, которые содержат только списки хеш-сумм
[Профиль]  [ЛС] 
 

AlexWSS

Стаж: 6 лет 10 месяцев

Сообщений: 15


AlexWSS · 08-Сен-18 14:20 (спустя 4 часа)

[Цитировать] 

Ждали!!! Спасибо, с интересом посмотрим. Даже не ожидал, что так зацепит...
[Профиль]  [ЛС] 

Fockler

Стаж: 11 месяцев

Сообщений: 10

Fockler · 13-Сен-18 12:31 (спустя 4 дня)

[Цитировать] 

Когда сюда выйдут 3-4 серии?
[Профиль]  [ЛС] 

Pigy

RG Русские сериалы

Стаж: 9 лет 11 месяцев

Сообщений: 3104

Pigy · 13-Сен-18 15:18 (спустя 2 часа 46 мин.)

[Цитировать] 

Fockler писал(а):
75955668Когда сюда выйдут 3-4 серии?
Когда НТВ их покажет
[Профиль]  [ЛС] 

Fox_new

Стаж: 7 лет 11 месяцев

Сообщений: 207

Fox_new · 14-Сен-18 10:15 (спустя 18 часов)

[Цитировать] 

Посмотримс...
[Профиль]  [ЛС] 

Pigy

RG Русские сериалы

Стаж: 9 лет 11 месяцев

Сообщений: 3104

Pigy · 15-Сен-18 09:46 (спустя 23 часа)

[Цитировать] 

Добавлены 3-4 серии
[Профиль]  [ЛС] 

Pigy

RG Русские сериалы

Стаж: 9 лет 11 месяцев

Сообщений: 3104

Pigy · 21-Сен-18 23:12 (спустя 6 дней)

[Цитировать] 

Добавлены 5-6 серии
[Профиль]  [ЛС] 

Celta88

Помощник модератора

Стаж: 9 лет 5 месяцев

Сообщений: 4465

Celta88 · 22-Сен-18 00:57 (спустя 1 час 44 мин.)

[Цитировать] 



проверено
[Профиль]  [ЛС] 

Mocro

Стаж: 8 лет 10 месяцев

Сообщений: 8

Mocro · 29-Сен-18 10:58 (спустя 7 дней)

[Цитировать] 

Ждём 7 и 8.
[Профиль]  [ЛС] 

Pigy

RG Русские сериалы

Стаж: 9 лет 11 месяцев

Сообщений: 3104

Pigy · 29-Сен-18 11:14 (спустя 15 мин.)

[Цитировать] 

Mocro писал(а):
76040934Ждём 7 и 8.

Добавлены 7-8 серии
[Профиль]  [ЛС] 

Pigy

RG Русские сериалы

Стаж: 9 лет 11 месяцев

Сообщений: 3104

Pigy · 05-Окт-18 23:25 (спустя 6 дней)

[Цитировать] 

Добавлены 9-10 серии
[Профиль]  [ЛС] 

Cat Smiley

Стаж: 8 лет 2 месяца

Сообщений: 305

Cat Smiley · 06-Окт-18 20:47 (спустя 21 час)

[Цитировать] 

Классный сериал!
[Профиль]  [ЛС] 

Fockler

Стаж: 11 месяцев

Сообщений: 10

Fockler · 12-Окт-18 20:04 (спустя 5 дней)

[Цитировать] 

Почему не выходят 11-12 серии? Обещали же 24 серии. Да и по несчастному НТВ ничего не идет.
[Профиль]  [ЛС] 

Fox_new

Стаж: 7 лет 11 месяцев

Сообщений: 207

Fox_new · 14-Окт-18 18:52 (спустя 1 день 22 часа)

[Цитировать] 

ГДЕ???
[Профиль]  [ЛС] 

Pigy

RG Русские сериалы

Стаж: 9 лет 11 месяцев

Сообщений: 3104

Pigy · 16-Окт-18 16:07 (спустя 1 день 21 час)

[Цитировать] 

Fox_new писал(а):
76132098ГДЕ???
НТВшники прервали показ сериала, поэтому и серий нет.
[Профиль]  [ЛС] 

Sasha-013

Стаж: 4 года 1 месяц

Сообщений: 192

Sasha-013 · 19-Окт-18 20:58 (спустя 3 дня)

[Цитировать] 

Pigy писал(а):
76142554
Fox_new писал(а):
76132098ГДЕ???
НТВшники прервали показ сериала, поэтому и серий нет.
А откуда сведения что прервали? Причины не указывали?
[Профиль]  [ЛС] 
 
Ответить
Loading...
Error