Бонус / Серии: 1-11 из 16 (Валерия Гай Германика) [2018, драма, музыка, WEBRip 1080p]

Страницы:  1

Ответить
Автор
Сообщение

Pigy

RG Русские сериалы

Стаж: 10 лет

Сообщений: 3499

Pigy · 20-Сен-18 17:27 (1 месяц 29 дней назад, ред. 15-Ноя-18 10:50)

Бонус
Год выпуска: 2018
Производство: ТНТ, АртДизайн
Жанр: драма, музыка
Продолжительность: ~00:40:00 серия
Субтитры: нет
Режиссёр: Валерия Гай Германика
В ролях: Александр Сударев, Александр Пархоменко, Лана Райдер, Артем Сучков, Дмитрий Смирнов, Антон Адасинский, Владимир Епифанцев, Алексей Литвиненко, Юлия Ауг, Александр Усердин, Лариса Баранова, Евгения Храповицкая, Игорь Верник, Агния Дитковските, Сергей Пахомов
Описание: Главный герой сериала — парень по кличке Бонус. Молодой пацан из глубокой провинции заразился рэпом, после того как мама подарила ему на 13-летие плеер. С тех пор парень стал слушать рэп, а затем и сам стал писать. Так пацан Ваня стал на районе известен как Бонус. У Бонуса был друг по кличке Гашик — уличный дилер, и именно он волею случая привозит Бонуса в Москву. В столице Бонус знакомится с Соней — дочкой крупного бизнесмена, между ними возникает сильное притяжение. Бонусу предстоит пережить ­несчастную любовь, конфликты с отцом девушки, взлеты и падения на фоне столичной рэп-­тусовки.

Реклама: Нет.
Кинопоиск
Все раздачи сериала
Sample
Качество: WEBRip 1080p - Getty
Формат: MKV
Видео кодек: H.264
Аудио кодек: AC3
Видео: MPEG4 AVC Video, H264, 16:9, 1920x1080, 25 fps, ~5000 kbps, 0.096 bit/pixel
Аудио: AC3 Dolby Digital, 48.0 kHz, 2/0 (L,R) ch, 192 kbps
Внимание! Раздача ведётся путём добавления новых серий
Раздача ведётся путём добавления новых серий, при каждом добавлении создаётся новый торрент. Чтобы начать докачку новой серии, пользователям необходимо сделать следующее:
- Остановить скачивание.
- Удалить старый торрент у себя из клиента (старые серии удалять не надо).
- Скачать новый торрент и запустить его у себя в клиенте вместо старого, при этом указать клиенту путь в старую папку куда и должно происходить скачивание новых серий.
Ваш клиент при этом должен произвести хеширование (проверку) старой папки (если не производит сам - помогите ему сделать это), и будет докачивать только те серии которых у вас ещё нет. Старые серии при этом не удаляются, а продолжают раздаваться!
Если вы уже удалили старые серии, то предотвратить повторную закачку старых серий можно, отжав галочку в соответствующих местах при запуске нового торрента. По возможности, желательно не удалять старые серии как можно дольше, чтобы релизер не столько продолжал раздавать старые серии, а смог сконцентрироваться на новых.
MI
General
Unique ID : 241895510819363744426428849976995512142 (0xB5FB617A244CD5E1B96B794ABD287F4E)
Complete name : D:\Bonus.2018.WEB-DL.(1080p).Getty\Bonus.e01.2018.WEB-DL.(1080p).Getty.mkv
Format : Matroska
Format version : Version 4 / Version 2
File size : 1.27 GiB
Duration : 35mn 34s
Overall bit rate mode : Constant
Overall bit rate : 5 123 Kbps
Movie name : Bonus.e01.2018.WEB-DL.(1080p).Getty
Encoded date : UTC 2018-09-19 20:35:06
Writing application : mkvmerge v7.8.0 ('River Man') 32bit built on Mar 27 2015 16:18:02
Writing library : libebml v1.3.1 + libmatroska v1.4.2
DURATION : 00:35:34.016000000
NUMBER_OF_FRAMES : 66688
NUMBER_OF_BYTES : 51216384
_STATISTICS_WRITING_APP : mkvmerge v7.8.0 ('River Man') 32bit built on Mar 27 2015 16:18:02
_STATISTICS_WRITING_DATE_UTC : 2018-09-19 20:35:06
_STATISTICS_TAGS : BPS DURATION NUMBER_OF_FRAMES NUMBER_OF_BYTES
Video
ID : 1
Format : AVC
Format/Info : Advanced Video Codec
Format profile : [email protected]
Format settings, CABAC : No
Format settings, ReFrames : 4 frames
Format settings, GOP : M=1, N=50
Codec ID : V_MPEG4/ISO/AVC
Duration : 35mn 34s
Bit rate mode : Constant
Bit rate : 5 000 Kbps
Width : 1 920 pixels
Height : 1 080 pixels
Display aspect ratio : 16:9
Frame rate mode : Constant
Frame rate : 25.000 fps
Standard : PAL
Color space : YUV
Chroma subsampling : 4:2:0
Bit depth : 8 bits
Scan type : Progressive
Bits/(Pixel*Frame) : 0.096
Stream size : 1.20 GiB (94%)
Default : Yes
Forced : No
Color primaries : BT.709
Transfer characteristics : BT.709
Matrix coefficients : BT.709
Audio
ID : 2
Format : AC-3
Format/Info : Audio Coding 3
Mode extension : CM (complete main)
Format settings, Endianness : Big
Codec ID : A_AC3
Duration : 35mn 34s
Bit rate mode : Constant
Bit rate : 192 Kbps
Channel count : 2 channels
Channel positions : Front: L R
Sampling rate : 48.0 KHz
Bit depth : 16 bits
Compression mode : Lossy
Stream size : 48.8 MiB (4%)
Default : Yes
Forced : No
Скриншоты
Download
Чтобы скачать .torrent файл необходима регистрация
Сайт не распространяет и не хранит электронные версии произведений, а лишь предоставляет доступ к создаваемому пользователями каталогу ссылок на торрент-файлы, которые содержат только списки хеш-сумм
[Профиль]  [ЛС] 
 

Pigy

RG Русские сериалы

Стаж: 10 лет

Сообщений: 3499

Pigy · 27-Сен-18 11:44 (спустя 6 дней)

[Цитировать] 

Добавлена 4 серия.
[Профиль]  [ЛС] 

blacksun232

Стаж: 10 лет 5 месяцев

Сообщений: 131

blacksun232 · 28-Сен-18 19:16 (спустя 1 день 7 часов)

[Цитировать] 

Буду ждать целиком, потом поддержу раздачу! Автору спасибо за труд!)
[Профиль]  [ЛС] 

tiramisu_ufa

Стаж: 9 лет

Сообщений: 3


tiramisu_ufa · 29-Сен-18 16:41 (спустя 21 час)

[Цитировать] 

круто смотрится, на одном дыхании!
[Профиль]  [ЛС] 

Pigy

RG Русские сериалы

Стаж: 10 лет

Сообщений: 3499

Pigy · 04-Окт-18 01:13 (спустя 4 дня)

[Цитировать] 

Добавлена 5 серия.
[Профиль]  [ЛС] 

Pigy

RG Русские сериалы

Стаж: 10 лет

Сообщений: 3499

Pigy · 11-Окт-18 02:41 (спустя 7 дней)

[Цитировать] 

Добавлена 6 серия.
[Профиль]  [ЛС] 

Pigy

RG Русские сериалы

Стаж: 10 лет

Сообщений: 3499

Pigy · 18-Окт-18 00:22 (спустя 6 дней)

[Цитировать] 

Добавлена 7 серия.
[Профиль]  [ЛС] 

thomsen

Стаж: 10 лет 5 месяцев

Сообщений: 33


thomsen · 20-Окт-18 19:01 (спустя 2 дня 18 часов)

[Цитировать] 

У Германики почти всегда одни и те же актеры, отличный фильм!
[Профиль]  [ЛС] 

BodroFF 1

Стаж: 7 лет

Сообщений: 4


BodroFF 1 · 24-Окт-18 22:53 (спустя 4 дня)

[Цитировать] 

8 серия когда будет не известно?
[Профиль]  [ЛС] 

Pigy

RG Русские сериалы

Стаж: 10 лет

Сообщений: 3499

Pigy · 25-Окт-18 00:44 (спустя 1 час 51 мин.)

[Цитировать] 

BodroFF 1 писал(а):
761947108 серия когда будет не известно?
Известно. Сейчас.
Добавлена 8 серия.
Цедят по-тихоньку.
[Профиль]  [ЛС] 

Pigy

RG Русские сериалы

Стаж: 10 лет

Сообщений: 3499

Pigy · 01-Ноя-18 06:43 (спустя 7 дней)

[Цитировать] 

Добавлена 9 серия.
[Профиль]  [ЛС] 

Pigy

RG Русские сериалы

Стаж: 10 лет

Сообщений: 3499

Pigy · 08-Ноя-18 10:08 (спустя 7 дней)

[Цитировать] 

Добавлена 10 серия.
[Профиль]  [ЛС] 

Pigy

RG Русские сериалы

Стаж: 10 лет

Сообщений: 3499

Pigy · 15-Ноя-18 10:50 (спустя 7 дней)

[Цитировать] 

Добавлена 11 серия.
[Профиль]  [ЛС] 
 
Ответить
Loading...
Error