Бонус / Серии: 1-11 из 16 (Валерия Гай Германика) [2018, драма, музыка, WEBRip]

Страницы:  1

Ответить
Автор
Сообщение

Pigy

RG Русские сериалы

Стаж: 10 лет

Сообщений: 3499

Pigy · 20-Сен-18 17:32 (1 месяц 29 дней назад, ред. 15-Ноя-18 10:50)

Бонус
Год выпуска: 2018
Производство: ТНТ, АртДизайн
Жанр: драма, музыка
Продолжительность: ~00:40:00 серия
Субтитры: нет
Режиссёр: Валерия Гай Германика
В ролях: Александр Сударев, Александр Пархоменко, Лана Райдер, Артем Сучков, Дмитрий Смирнов, Антон Адасинский, Владимир Епифанцев, Алексей Литвиненко, Юлия Ауг, Александр Усердин, Лариса Баранова, Евгения Храповицкая, Игорь Верник, Агния Дитковските, Сергей Пахомов
Описание: Главный герой сериала — парень по кличке Бонус. Молодой пацан из глубокой провинции заразился рэпом, после того как мама подарила ему на 13-летие плеер. С тех пор парень стал слушать рэп, а затем и сам стал писать. Так пацан Ваня стал на районе известен как Бонус. У Бонуса был друг по кличке Гашик — уличный дилер, и именно он волею случая привозит Бонуса в Москву. В столице Бонус знакомится с Соней — дочкой крупного бизнесмена, между ними возникает сильное притяжение. Бонусу предстоит пережить ­несчастную любовь, конфликты с отцом девушки, взлеты и падения на фоне столичной рэп-­тусовки.

Реклама: Нет.
Кинопоиск
Все раздачи сериала
Sample
Качество: WEBRip - 25Kuzmich
Формат: AVI
Видео кодек: XviD
Аудио кодек: AC3
Видео: 720x320 (2.25:1), 25 fps, XviD ~1650 kbps avg, 0.286 bit/pixel
Аудио: 48.0 kHz, AC3 Dolby Digital, 2/0 (L,R) ch, ~ 192 kbps
Внимание! Раздача ведётся путём добавления новых серий
Раздача ведётся путём добавления новых серий, при каждом добавлении создаётся новый торрент. Чтобы начать докачку новой серии, пользователям необходимо сделать следующее:
- Остановить скачивание.
- Удалить старый торрент у себя из клиента (старые серии удалять не надо).
- Скачать новый торрент и запустить его у себя в клиенте вместо старого, при этом указать клиенту путь в старую папку куда и должно происходить скачивание новых серий.
Ваш клиент при этом должен произвести хеширование (проверку) старой папки (если не производит сам - помогите ему сделать это), и будет докачивать только те серии которых у вас ещё нет. Старые серии при этом не удаляются, а продолжают раздаваться!
Если вы уже удалили старые серии, то предотвратить повторную закачку старых серий можно, отжав галочку в соответствующих местах при запуске нового торрента. По возможности, желательно не удалять старые серии как можно дольше, чтобы релизер не столько продолжал раздавать старые серии, а смог сконцентрироваться на новых.
MI
General
Complete name : D:\Bonus.WEB-DLRip.25Kuzmich\Bonus.e01.WEB-DLRip.25Kuzmich.avi
Format : AVI
Format/Info : Audio Video Interleave
File size : 469 MiB
Duration : 35mn 26s
Overall bit rate : 1 852 Kbps
Writing application : VirtualDubMod 1.5.10.3 | www.virtualdub-fr.org || (build 2550/release)
Writing library : VirtualDubMod build 2550/release
Video
ID : 0
Format : MPEG-4 Visual
Format profile : Advanced [email protected]
Format settings, BVOP : 1
Format settings, QPel : No
Format settings, GMC : No warppoints
Format settings, Matrix : Default (MPEG)
Codec ID : XVID
Codec ID/Hint : XviD
Duration : 35mn 26s
Bit rate : 1 650 Kbps
Width : 720 pixels
Height : 320 pixels
Display aspect ratio : 2.25:1
Frame rate : 25.000 fps
Color space : YUV
Chroma subsampling : 4:2:0
Bit depth : 8 bits
Scan type : Progressive
Compression mode : Lossy
Bits/(Pixel*Frame) : 0.286
Stream size : 418 MiB (89%)
Writing library : XviD 1.2.1 (UTC 2008-12-04)
Audio
ID : 1
Format : AC-3
Format/Info : Audio Coding 3
Mode extension : CM (complete main)
Format settings, Endianness : Big
Codec ID : 2000
Duration : 35mn 26s
Bit rate mode : Constant
Bit rate : 192 Kbps
Channel count : 2 channels
Channel positions : Front: L R
Sampling rate : 48.0 KHz
Bit depth : 16 bits
Compression mode : Lossy
Stream size : 48.7 MiB (10%)
Alignment : Split accross interleaves
Interleave, duration : 40 ms (1.00 video frame)
Interleave, preload duration : 500 ms
Скриншоты
Download
Чтобы скачать .torrent файл необходима регистрация
Сайт не распространяет и не хранит электронные версии произведений, а лишь предоставляет доступ к создаваемому пользователями каталогу ссылок на торрент-файлы, которые содержат только списки хеш-сумм
[Профиль]  [ЛС] 
 

bulgary_guest

Стаж: 8 лет 4 месяца

Сообщений: 110


bulgary_guest · 20-Сен-18 19:19 (спустя 1 час 46 мин.)

[Цитировать] 

Рэп уже и в сериалы пролез
[Профиль]  [ЛС] 

Pashtet7

Стаж: 6 лет 2 месяца

Сообщений: 137


Pashtet7 · 21-Сен-18 03:45 (спустя 8 часов)

[Цитировать] 

Германика весь свои стиль растеряла, если сравнивать со "Школой" и "Краткий курс..."
Это какой-то треш для не пойми кого.
[Профиль]  [ЛС] 

krendel-08

Стаж: 9 лет

Сообщений: 247


krendel-08 · 26-Сен-18 21:00 (спустя 5 дней)

[Цитировать] 

далек от рэпа
но очень даже смотрибельная буффонада
валерка творит, в отличии от менто-инкубаторских ремесленников
вполне себе отдушина
пока нравится
ps^ рэп не мешает
[Профиль]  [ЛС] 

Pigy

RG Русские сериалы

Стаж: 10 лет

Сообщений: 3499

Pigy · 27-Сен-18 11:44 (спустя 14 часов)

[Цитировать] 

Добавлена 4 серия.
[Профиль]  [ЛС] 

Pigy

RG Русские сериалы

Стаж: 10 лет

Сообщений: 3499

Pigy · 04-Окт-18 01:14 (спустя 6 дней)

[Цитировать] 

Добавлена 5 серия.
[Профиль]  [ЛС] 

Celta88

Стажер-модератор

Стаж: 9 лет 6 месяцев

Сообщений: 4684

Celta88 · 04-Окт-18 01:36 (спустя 22 мин.)

[Цитировать] 



проверено
[Профиль]  [ЛС] 

semplc-a

Стаж: 1 месяц 16 дней

Сообщений: 1


semplc-a · 04-Окт-18 06:44 (спустя 5 часов)

[Цитировать] 

Pigy писал(а):
76069483Добавлена 5 серия.
когда 6-ая? в день две серии выходит же
[Профиль]  [ЛС] 

Pigy

RG Русские сериалы

Стаж: 10 лет

Сообщений: 3499

Pigy · 11-Окт-18 02:43 (спустя 6 дней)

[Цитировать] 

semplc-a писал(а):
76069980
Pigy писал(а):
76069483Добавлена 5 серия.
когда 6-ая? в день две серии выходит же
Чего вы придумываете? Выходит по одной серии каждый четверг.
Добавлена 6 серия.
[Профиль]  [ЛС] 

Pigy

RG Русские сериалы

Стаж: 10 лет

Сообщений: 3499

Pigy · 18-Окт-18 00:21 (спустя 6 дней)

[Цитировать] 

Добавлена 7 серия.
[Профиль]  [ЛС] 

quadrobyte

Стаж: 9 лет 5 месяцев

Сообщений: 3


quadrobyte · 18-Окт-18 08:46 (спустя 8 часов)

[Цитировать] 

А что за странный актерский состав указан? Что в этой, что в других раздачах? Особых звезд в сериале нету, но есть несколько лиц узнаваемых. А тут указаны какие-то вообще левые фамилии.
Вот список с кинопоиска:
Александр Сударев, Александр Пархоменко, Лана Райдер, Артем Сучков, Дмитрий Смирнов, Антон Адасинский, Владимир Епифанцев, Алексей Литвиненко, Юлия Ауг, Александр Усердин, Лариса Баранова, Евгения Храповицкая, Игорь Верник, Агния Дитковските, Сергей Пахомов
[Профиль]  [ЛС] 

Pigy

RG Русские сериалы

Стаж: 10 лет

Сообщений: 3499

Pigy · 25-Окт-18 00:42 (спустя 6 дней, ред. 25-Окт-18 00:42)

[Цитировать] 

Добавлена 8 серия.
quadrobyte
Исправил, такое бывает у людей которые что-то делают. По ошибке с другого серика актеры были.
[Профиль]  [ЛС] 

Pigy

RG Русские сериалы

Стаж: 10 лет

Сообщений: 3499

Pigy · 01-Ноя-18 06:43 (спустя 7 дней)

[Цитировать] 

Добавлена 9 серия.
[Профиль]  [ЛС] 

Pigy

RG Русские сериалы

Стаж: 10 лет

Сообщений: 3499

Pigy · 08-Ноя-18 10:08 (спустя 7 дней)

[Цитировать] 

Добавлена 10 серия.
[Профиль]  [ЛС] 

Pigy

RG Русские сериалы

Стаж: 10 лет

Сообщений: 3499

Pigy · 15-Ноя-18 10:50 (спустя 7 дней)

[Цитировать] 

Добавлена 11 серия.
[Профиль]  [ЛС] 
 
Ответить
Loading...
Error