Папаньки / Серии: 1-12 из 16 (Ирина Васильева, Александр Кананович) [2018, комедия, WEBRip]

Страницы:  1

Ответить
Автор
Сообщение

Pigy

RG Русские сериалы

Стаж: 9 лет 11 месяцев

Сообщений: 3041

Pigy · 25-Сен-18 12:12 (21 день назад, ред. 12-Окт-18 01:28)

Папаньки
Год выпуска: 2018
Производство: Дизель Студия
Жанр: комедия
Продолжительность: ~00:42:00 серия
Субтитры: нет
Режиссёр: Ирина Васильева, Александр Кананович
В ролях: Егор Крутоголов, Евгений Гашенко, Евгений Сморигин, Андрей Фединчик, Лилия Ребрик, Демьян Шиян, Ольга Арутюнян, Вероника Лукьяненко, Ольга Лукьяненко, Надежда Кондратовская, Анна Варпаховская, Олег Стальчук, Вячеслав Хостикоев, Александр Ярема, Олег Иваница, Лариса Трояновская, Татьяна Зиновенко, Анатолий Зиновенко, Александр Бережок, Александр Бегма, Мария Мархай
Описание: Четверо друзей живут в одном дворе столичной многоэтажки. Кроме чисто мужских интересов, их объединяет важная тема – воспитание детей. Один из героев только готовится стать отцом, другой воспитывает 7-летнего сына, а третий – сына и двух дочек разного возраста. Герои безумно любят своих детей, гордятся их успехами и активно вовлечены в их воспитание. Только иногда отцы забывают, что сами уже выросли. И есть у них ещё четвёртый друг – заядлый холостяк и ловелас, который категорически не хочет заводить детей.

Реклама: Нет.
Кино-театр
Все раздачи сериала
Sample
Качество: WEBRip - Files-x
Формат: AVI
Видео кодек: XviD
Аудио кодек: AC3
Видео: 720x400 (1.80:1), 25 fps, XviD build 73 ~1500 kbps avg, 0.208 bit/pixel
Аудио: 48.0 kHz, AC3 Dolby Digital, 2/0 (L,R) ch, ~ 192 kbps
Внимание! Раздача ведётся путём добавления новых серий
Раздача ведётся путём добавления новых серий, при каждом добавлении создаётся новый торрент. Чтобы начать докачку новой серии, пользователям необходимо сделать следующее:
- Остановить скачивание.
- Удалить старый торрент у себя из клиента (старые серии удалять не надо).
- Скачать новый торрент и запустить его у себя в клиенте вместо старого, при этом указать клиенту путь в старую папку куда и должно происходить скачивание новых серий.
Ваш клиент при этом должен произвести хеширование (проверку) старой папки (если не производит сам - помогите ему сделать это), и будет докачивать только те серии которых у вас ещё нет. Старые серии при этом не удаляются, а продолжают раздаваться!
Если вы уже удалили старые серии, то предотвратить повторную закачку старых серий можно, отжав галочку в соответствующих местах при запуске нового торрента. По возможности, желательно не удалять старые серии как можно дольше, чтобы релизер не столько продолжал раздавать старые серии, а смог сконцентрироваться на новых.
MI
General
Complete name : D:\Папаньки.2018.WEB-DLRip.Files-x\01.Папаньки.2018.WEB-DLRip.Files-x.avi
Format : AVI
Format/Info : Audio Video Interleave
File size : 512 MiB
Duration : 42mn 1s
Overall bit rate : 1 702 Kbps
Writing application : VirtualDubMod 1.5.10.3 | www.virtualdub-fr.org || (build 2550/release)
Writing library : VirtualDubMod build 2550/release
Video
ID : 0
Format : MPEG-4 Visual
Format profile : Advanced [email protected]
Format settings, BVOP : 1
Format settings, QPel : No
Format settings, GMC : No warppoints
Format settings, Matrix : Custom
Codec ID : XVID
Codec ID/Hint : XviD
Duration : 42mn 1s
Bit rate : 1 500 Kbps
Width : 720 pixels
Height : 400 pixels
Display aspect ratio : 16:9
Frame rate : 25.000 fps
Color space : YUV
Chroma subsampling : 4:2:0
Bit depth : 8 bits
Scan type : Progressive
Compression mode : Lossy
Bits/(Pixel*Frame) : 0.208
Stream size : 451 MiB (88%)
Writing library : XviD 73
Audio
ID : 1
Format : AC-3
Format/Info : Audio Coding 3
Mode extension : CM (complete main)
Format settings, Endianness : Big
Codec ID : 2000
Duration : 42mn 1s
Bit rate mode : Constant
Bit rate : 192 Kbps
Channel count : 2 channels
Channel positions : Front: L R
Sampling rate : 48.0 KHz
Bit depth : 16 bits
Compression mode : Lossy
Stream size : 57.7 MiB (11%)
Alignment : Split accross interleaves
Interleave, duration : 40 ms (1.00 video frame)
Interleave, preload duration : 500 ms
Скриншоты
Download
Чтобы скачать .torrent файл необходима регистрация
Сайт не распространяет и не хранит электронные версии произведений, а лишь предоставляет доступ к создаваемому пользователями каталогу ссылок на торрент-файлы, которые содержат только списки хеш-сумм
[Профиль]  [ЛС] 
 

Celta88

Помощник модератора

Стаж: 9 лет 5 месяцев

Сообщений: 4439

Celta88 · 25-Сен-18 13:23 (спустя 1 час 11 мин.)

[Цитировать] 



проверено
[Профиль]  [ЛС] 

Pigy

RG Русские сериалы

Стаж: 9 лет 11 месяцев

Сообщений: 3041

Pigy · 28-Сен-18 06:27 (спустя 2 дня 17 часов, ред. 28-Сен-18 06:27)

[Цитировать] 

Добавлена 3 серия, а также заменены 1 и 2 серии на серии без логотипа.
Добавлена 4 серия
[Профиль]  [ЛС] 

Алекс_81

Стаж: 8 лет 9 месяцев

Сообщений: 20


Алекс_81 · 28-Сен-18 20:02 (спустя 13 часов)

[Цитировать] 

Спасибо, хороший сериал для отдыха:))
[Профиль]  [ЛС] 

jimmynejtron

Стаж: 6 лет

Сообщений: 195

jimmynejtron · 30-Сен-18 17:53 (спустя 1 день 21 час)

[Цитировать] 

опять ширлимырловукраино.... прохожу мимо...
[Профиль]  [ЛС] 

Pigy

RG Русские сериалы

Стаж: 9 лет 11 месяцев

Сообщений: 3041

Pigy · 05-Окт-18 01:12 (спустя 4 дня, ред. 05-Окт-18 01:12)

[Цитировать] 

Добавлена 5 серия.
Добавлена 6 серия
Добавлена 7 серия
Добавлена 8 серия
[Профиль]  [ЛС] 

wodc

Стаж: 8 лет 6 месяцев

Сообщений: 21

wodc · 05-Окт-18 07:58 (спустя 6 часов)

[Цитировать] 

jimmynejtron писал(а):
76049727опять ширлимырловукраино.... прохожу мимо...
3,14здуй мимо, путиноид
[Профиль]  [ЛС] 

novoselov_46

Стаж: 3 года 9 месяцев

Сообщений: 1


novoselov_46 · 05-Окт-18 19:57 (спустя 11 часов)

[Цитировать] 

wodc писал(а):
76075827
jimmynejtron писал(а):
76049727опять ширлимырловукраино.... прохожу мимо...
3,14здуй мимо, путиноид
парашаньки
[Профиль]  [ЛС] 

Dron12

Стаж: 10 лет 4 месяца

Сообщений: 300


Dron12 · 05-Окт-18 20:27 (спустя 29 мин., ред. 05-Окт-18 20:27)

[Цитировать] 

Почему засунули в русские сериалы?! Если бы не прочитал комменты, вляпался бы.
wodc писал(а):
76075827
jimmynejtron писал(а):
76049727опять ширлимырловукраино.... прохожу мимо...
3,14здуй мимо, путиноид
тебе запретили находится в русскоязычном сегменте интернета, потребляй мовный контент
[Профиль]  [ЛС] 

Shuga_ru

Стаж: 11 лет 6 месяцев

Сообщений: 20


Shuga_ru · 08-Окт-18 18:35 (спустя 2 дня 22 часа)

[Цитировать] 

Dron12 писал(а):
76079882Почему засунули в русские сериалы?! Если бы не прочитал комменты, вляпался бы.
wodc писал(а):
76075827
jimmynejtron писал(а):
76049727опять ширлимырловукраино.... прохожу мимо...
3,14здуй мимо, путиноид
тебе запретили находится в русскоязычном сегменте интернета, потребляй мовный контент
Ну зачем обижать человека..украинца... сейчас поделят украину на 5 частей..и то что от нее останется, попытается присоединиться к РФ.
[Профиль]  [ЛС] 

mamamiya123

Стаж: 9 лет 1 месяц

Сообщений: 1

mamamiya123 · 08-Окт-18 21:40 (спустя 3 часа)

[Цитировать] 

Господа!!! Зачем гадить друг на друга??? Лучше бы написали, что прекрасный лёгкий комедийный сериальчик, вполне подойдёт для вечернего просмотра.....
[Профиль]  [ЛС] 

Pigy

RG Русские сериалы

Стаж: 9 лет 11 месяцев

Сообщений: 3041

Pigy · 12-Окт-18 01:29 (спустя 3 дня, ред. 12-Окт-18 01:29)

[Цитировать] 

Добавлена 9 серия.
Добавлена 10 серия.
Добавлена 11 серия.
Добавлена 12 серия.
[Профиль]  [ЛС] 

dorazz

Стаж: 1 месяц 22 дня

Сообщений: 47

dorazz · 13-Окт-18 18:09 (спустя 1 день 16 часов)

[Цитировать] 

++++
[Профиль]  [ЛС] 
 
Ответить
Loading...
Error