Адрес РуТрекера для пользователей РФ - 11.MainTracker.org

Расскажи друзьям:  

Каменская / Сезон: 1-6 / Серии: 1-84 из 84 (Юрий Мороз, Владимир Поночевный / Александр Аравин / Марат Ким, Егор Анашкин) [1999-2011, Детектив, 10 x DVD9, 16 x DVD5]

Страницы:  1

Ответить
Автор
Сообщение

purskyi

Music Group

Стаж: 8 лет 9 месяцев

Сообщений: 8269

purskyi · 28-Сен-18 23:17 (2 месяца 18 дней назад, ред. 10-Окт-18 19:56)

Каменская / сезоны 1-6 из 6 / серии 1-84 из 84 /

Каменская / Сезон 1 / Серии 1-16 из 16 /Год выпуска: 1999-2011
Производство: Кинокомпания «Рекун-Синема» и ВГТРК, Беларусьфильм, НТВ-Кино, Racoon-Kino
Жанр: Детектив
Продолжительность:
Субтитры: нету
Режиссёр: Юрий Мороз
В ролях:
Елена Яковлева, Сергей Никоненко, Сергей Гармаш, Дмитрий Нагиев, Андрей Ильин, Алексей Горбунов, Всеволод Шиловский, Андрей Панин, Борис Невзоров, Альгимантас Масюлис, Марина Могилевская и др.
Описание: Cериал «Каменская» — это первая экранизация популярных романов «русской Агаты Кристи» Александры Марининой. Главная героиня сериала — майор милиции Анастасия Каменская, за которой закрепилась слава прекрасного аналитика, — говорит на пяти языках и обожает свою работу. Она с готовностью берется за неразрешимые на первый взгляд дела и мастерски вычисляет преступников по самым незначительным деталям им поступков, характера, психологии. Настины способности в сочетании с профессионализмом двух других сотрудников уголовного розыска — Михаила Лесникова и Юрия Короткова — дают прекрасные результаты раскрываемости преступлений.
Реклама: Нет
Все раздачи сериала | Кинопоиск
Тех. данные
Качество: DVD9 sample
Формат: DVD-Video
Видео кодек: MPEG2
Аудио кодек: AC3
Видео: PAL, 4:3, (720x576) VBR, 4849 Кбит/сек, 0.468 bit/pixel
Аудио: Russian (Dolby AC3, 2 ch)
MI
Общее
Полное имя : D:\Торрент\После\Каменская (1-6 сезоны, 1-84 серии из 84)[1999-2011](10 x DVD-9, 16 x DVD-5)\Сезон.1\1. Стечение обстоятельств. DVD5\VIDEO_TS\VTS_01_1.VOB
Формат : MPEG-PS
Размер файла : 1024 Мбайт
Продолжительность : 27 м. 50 с.
Режим общего битрейта : Переменный
Общий поток : 5144 Кбит/сек
Видео
Идентификатор : 224 (0xE0)
Формат : MPEG Video
Версия формата : Version 2
Профиль формата : [email protected]
Настройки формата : CustomMatrix / BVOP
Параметр BVOP формата : Да
Параметр матрицы формата : Выборочная
Параметр GOP формата : M=3, N=12
Структура изображения : Frame
Продолжительность : 27 м. 50 с.
Вид битрейта : Переменный
Битрейт : 4849 Кбит/сек
Максимальный битрейт : 8500 Кбит/сек
Ширина : 720 пикселей
Высота : 576 пикселей
Соотношение сторон : 4:3
Частота кадров : 25,000 кадров/сек
Стандарт вещания : PAL
Цветовое пространство : YUV
Субдискретизация насыщенности : 4:2:0
Битовая глубина : 8 бит
Тип развёртки : Чересстрочная
Порядок развёртки : Верхнее поле первое
Метод сжатия : С потерями
Бит/(Пиксели*Кадры) : 0.468
Временной код первого кадра : 00:00:00:00
Оригинал временного кода : Group of pictures header
GOP, открыто/закрыто : Открыто
GOP, открыто/закрыто на первом кадре : Закрыто
Размер потока : 965 Мбайт (94%)
Аудио
Идентификатор : 189 (0xBD)-128 (0x80)
Формат : AC-3
Формат/Информация : Audio Coding 3
Режим смешивания : DVD-Video
Продолжительность : 27 м. 49 с.
Вид битрейта : Постоянный
Битрейт : 192 Кбит/сек
Каналы : 2 канала
Расположение каналов : Front: L R
Частота : 48,0 КГц
Частота кадров : 31,250 кадров/сек (1536 SPF)
Битовая глубина : 16 бит
Метод сжатия : С потерями
Размер потока : 38,2 Мбайт (4%)
ServiceKind/String : Complete Main
DVDInfo
Скриншоты

Каменская / Сезон 2 / Серии 1-16 из 16 /
Год выпуска: 2002
Производство: Кинокомпания «Рекун-Синема» и ВГТРК, Беларусьфильм, НТВ-Кино, Racoon-Kino
Жанр: Детектив
Продолжительность:
Субтитры: нету
Режиссёр: Юрий Мороз, Владимир Поночевный / Александр Аравин / Марат Ким, Егор Анашкин
В ролях:
Елена Яковлева, Сергей Никоненко, Сергей Гармаш, Дмитрий Нагиев, Андрей Ильин, Алексей Горбунов, Всеволод Шиловский, Андрей Панин, Борис Невзоров, Альгимантас Масюлис, Марина Могилевская и др.
Описание: Сотрудница уголовного розыска Анастасия Каменская умеет вычислить преступника по самым незначительным деталям его поступков, характера, психологии.
Тех. данные
Качество: DVD9 sample
Формат: DVD-Video
Видео кодек: MPEG2
Аудио кодек: AC3
Видео: PAL, 4:3, (720x576) VBR, 5200 Кбит/сек, 0.502 bit/pixel
Аудио: Russian (Dolby AC3, 2 ch) 192 Кбит/сек
MI
Общее
Полное имя : D:\Торрент\После\Каменская (1-6 сезоны, 1-84 серии из 84)[1999-2011](10 x DVD-9, 16 x DVD-5)\Сезон.2\2. Я умер вчера. DVD9\VIDEO_TS\VTS_01_1.VOB
Формат : MPEG-PS
Размер файла : 1024 Мбайт
Продолжительность : 26 м. 0 с.
Режим общего битрейта : Постоянный
Общий поток : 5506 Кбит/сек
Видео
Идентификатор : 224 (0xE0)
Формат : MPEG Video
Версия формата : Version 2
Профиль формата : [email protected]
Настройки формата : CustomMatrix / BVOP
Параметр BVOP формата : Да
Параметр матрицы формата : Выборочная
Параметр GOP формата : M=3, N=12
Структура изображения : Frame
Продолжительность : 26 м. 0 с.
Вид битрейта : Постоянный
Битрейт : 5200 Кбит/сек
Ширина : 720 пикселей
Высота : 576 пикселей
Соотношение сторон : 4:3
Частота кадров : 25,000 кадров/сек
Стандарт вещания : PAL
Цветовое пространство : YUV
Субдискретизация насыщенности : 4:2:0
Битовая глубина : 8 бит
Тип развёртки : Чересстрочная
Порядок развёртки : Верхнее поле первое
Метод сжатия : С потерями
Бит/(Пиксели*Кадры) : 0.502
Временной код первого кадра : 00:00:00:00
Оригинал временного кода : Group of pictures header
GOP, открыто/закрыто : Закрыто
Размер потока : 968 Мбайт (95%)
Аудио
Идентификатор : 189 (0xBD)-128 (0x80)
Формат : AC-3
Формат/Информация : Audio Coding 3
Режим смешивания : DVD-Video
Продолжительность : 25 м. 59 с.
Вид битрейта : Постоянный
Битрейт : 192 Кбит/сек
Каналы : 2 канала
Расположение каналов : Front: L R
Частота : 48,0 КГц
Частота кадров : 31,250 кадров/сек (1536 SPF)
Битовая глубина : 16 бит
Метод сжатия : С потерями
Размер потока : 35,7 Мбайт (3%)
ServiceKind/String : Complete Main
DVDInfo
Скриншоты

Каменская / Сезон 3 / Серии 1-16 из 16 /
Год выпуска: 2003
Производство: Кинокомпания «Рекун-Синема» и ВГТРК, Беларусьфильм, НТВ-Кино, Racoon-Kino
Жанр: Детектив
Продолжительность:
Субтитры: нету
Режиссёр: Юрий Мороз, Владимир Поночевный / Александр Аравин / Марат Ким, Егор Анашкин
В ролях:
Елена Яковлева, Сергей Никоненко, Сергей Гармаш, Дмитрий Нагиев, Андрей Ильин, Алексей Горбунов, Всеволод Шиловский, Андрей Панин, Борис Невзоров, Альгимантас Масюлис, Марина Могилевская и др.
Описание: Состоит из 16 серий, по 4 на каждый роман: "Иллюзия греха", "Когда боги смеются", "Стилист" и "Седьмая жертва".
Сотрудница уголовного розыска Анастасия Каменская умеет вычислить преступника по самым незначительным деталям его поступков, характера, психологии. "Каменская" - это не просто детектив в общепринятом смысле, это попытка показать срез сегодняшнего дня страны. Показать жизнь многих людей, в чью размеренную повседневность вдруг вихрем врывается тяжелая и страшная тема возрастающей преступности. Проблема выбора для человека, волею обстоятельств оказавшегося на стыке привычного и криминального миров, - вот что в первую очередь волнует писательницу и создателей фильма.
Тех. данные
Качество: DVD9 sample
Формат: DVD-Video
Видео кодек: MPEG2
Аудио кодек: AC3
Видео: PAL, 4:3, (720x576) VBR, 5872 Кбит/сек, 0.566 bit/pixel
Аудио: Russian (Dolby AC3, 2 ch) 192 Кбит/сек
MI
Общее
Полное имя : D:\Торрент\После\Каменская (1-6 сезоны, 1-84 серии из 84)[1999-2011](10 x DVD-9, 16 x DVD-5)\Сезон.3\1. Иллюзия греха. DVD5\VIDEO_TS\VTS_01_1.VOB
Формат : MPEG-PS
Размер файла : 1024 Мбайт
Продолжительность : 23 м. 8 с.
Режим общего битрейта : Переменный
Общий поток : 6187 Кбит/сек
Видео
Идентификатор : 224 (0xE0)
Формат : MPEG Video
Версия формата : Version 2
Профиль формата : [email protected]
Настройки формата : CustomMatrix / BVOP
Параметр BVOP формата : Да
Параметр матрицы формата : Выборочная
Параметр GOP формата : M=3, N=15
Структура изображения : Frame
Продолжительность : 23 м. 8 с.
Вид битрейта : Переменный
Битрейт : 5872 Кбит/сек
Максимальный битрейт : 9500 Кбит/сек
Ширина : 720 пикселей
Высота : 576 пикселей
Соотношение сторон : 4:3
Частота кадров : 25,000 кадров/сек
Стандарт вещания : PAL
Цветовое пространство : YUV
Субдискретизация насыщенности : 4:2:0
Битовая глубина : 8 бит
Тип развёртки : Чересстрочная
Порядок развёртки : Верхнее поле первое
Метод сжатия : С потерями
Бит/(Пиксели*Кадры) : 0.566
Временной код первого кадра : 00:00:04:00
Оригинал временного кода : Group of pictures header
GOP, открыто/закрыто : Закрыто
Размер потока : 972 Мбайт (95%)
Аудио
Идентификатор : 189 (0xBD)-128 (0x80)
Формат : AC-3
Формат/Информация : Audio Coding 3
Режим смешивания : DVD-Video
Продолжительность : 23 м. 8 с.
Вид битрейта : Постоянный
Битрейт : 192 Кбит/сек
Каналы : 2 канала
Расположение каналов : Front: L R
Частота : 48,0 КГц
Частота кадров : 31,250 кадров/сек (1536 SPF)
Битовая глубина : 16 бит
Метод сжатия : С потерями
Размер потока : 31,8 Мбайт (3%)
ServiceKind/String : Complete Main
DVDInfo
Скриншоты

Каменская / Сезон 4 / Серии 1-12 из 12 /
Год выпуска: 2005
Производство: Компания "Рекун-ТВ" по заказу телеканала "Россия" на базе Киноконцерна "М
Жанр: Детектив
Продолжительность:
Субтитры: нету
Режиссёр: Александр Аравин
В ролях: Елена Яковлева, Андрей Ильин, Сергей Никоненко, Сергей Гармаш, Станислав Дужников, Александр Фёдоров, Эльвира Данилина, Константин Милованов, Екатерина Климова, Дмитрий Кубасов, Анастасия Аравина, Александр Козлов, Наташа Швец (II), Вадим Михалев, Анна Капалева, Борис Миронов, Дарья Белоусова, Константин Чепурин, Елена Караджова, Марина Могилевская, Алексей Горбунов, Дмитрий Нагиев, Вера Воронкова, Елена Ласкавая, Александр Сирин, Владислав Ветров, Рашид Тугушев
Описание: Следователь Анастасия Каменская и ее команда - Коротков, Лесников и Доценко - расследуют новые сложные преступления. В основу нового многосерийного телефильма легли три истории: "Личное дело", "Тень прошлого" и "Двойник". В каждой из них Каменская отчаянно борется за жизни не только невинных людей, но и тех, кто преступил закон.
Тех. данные
Качество: DVD9 sample
Формат: DVD-Video
Видео кодек: MPEG2
Аудио кодек: AC3
Видео: PAL, 4:3, (720x576) VBR, 3519 Кбит/сек, 0.339 bit/pixel
Аудио: Russian (Dolby AC3, 6 ch) 448 Кбит/сек
MI
Общее
Полное имя : D:\Торрент\После\Каменская (1-6 сезоны, 1-84 серии из 84)[1999-2011](10 x DVD-9, 16 x DVD-5)\Сезон.4\2. Тень прошлого. Двойник. DVD9\VIDEO_TS\VTS_07_1.VOB
Формат : MPEG-PS
Размер файла : 1024 Мбайт
Продолжительность : 35 м. 22 с.
Режим общего битрейта : Переменный
Общий поток : 4047 Кбит/сек
Видео
Идентификатор : 224 (0xE0)
Формат : MPEG Video
Версия формата : Version 2
Профиль формата : [email protected]
Настройки формата : BVOP
Параметр BVOP формата : Да
Параметр матрицы формата : По умолчанию
Параметр GOP формата : Variable
Структура изображения : Frame
Продолжительность : 35 м. 22 с.
Вид битрейта : Переменный
Битрейт : 3519 Кбит/сек
Максимальный битрейт : 8000 Кбит/сек
Ширина : 720 пикселей
Высота : 576 пикселей
Соотношение сторон : 4:3
Частота кадров : 25,000 кадров/сек
Стандарт вещания : PAL
Цветовое пространство : YUV
Субдискретизация насыщенности : 4:2:0
Битовая глубина : 8 бит
Тип развёртки : Чересстрочная
Порядок развёртки : Верхнее поле первое
Метод сжатия : С потерями
Бит/(Пиксели*Кадры) : 0.339
Временной код первого кадра : 00:00:00:00
Оригинал временного кода : Group of pictures header
GOP, открыто/закрыто : Закрыто
Размер потока : 890 Мбайт (87%)
Аудио
Идентификатор : 189 (0xBD)-128 (0x80)
Формат : AC-3
Формат/Информация : Audio Coding 3
Режим смешивания : DVD-Video
Продолжительность : 35 м. 22 с.
Вид битрейта : Постоянный
Битрейт : 448 Кбит/сек
Каналы : 6 каналов
Расположение каналов : Front: L C R, Side: L R, LFE
Частота : 48,0 КГц
Частота кадров : 31,250 кадров/сек (1536 SPF)
Битовая глубина : 16 бит
Метод сжатия : С потерями
Размер потока : 113 Мбайт (11%)
ServiceKind/String : Complete Main
DVDInfo
Скриншоты

Каменская / Сезон 5 / Серии 1-12 из 12 /
Год выпуска: 2008
Производство: Рекун ТВ
Жанр: Детектив
Продолжительность:
Субтитры: нету
Режиссёр: Антон Сиверс
В ролях: Елена Яковлева, Андрей Ильин, Сергей Никоненко, Станислав Дужников, Наташа Швец (II), Андрей Панин, Ирина Розанова, Олег Андреев, Артур Ваха, Сергей Перегудов, Мария Луговая, Геннадий Гарбук, Юлия Рувинская, Сергей Лосев, Илья Неретин
Описание: Картина снята по романам Александры Марининой "Реквием", "Воющие псы одиночества", "Имя потерпевшего - никто", "Посмертный образ", "Соавторы", "Закон трех отрицаний".
В фильме появляются новые персонажи, некоторые знакомые герои покидают проект. Исполнительница главной роли - Елена Яковлева, тем не менее, остается лицом сериала уже на протяжении десяти лет. Изменяется сам стиль фильма, он становится более ироничным и менее насыщенным сценами насилия.
Тех. данные
Качество: DVD9 sample
Формат: DVD-Video
Видео кодек: MPEG2
Аудио кодек: AC3
Видео: PAL, 4:3, (720x576) VBR, 3022 Кбит/сек, 0.291 bit/pixel
Аудио: Russian (Dolby AC3, 6 ch) 448 Кбит/сек
MI
Общее
Полное имя : D:\Торрент\После\Каменская (1-6 сезоны, 1-84 серии из 84)[1999-2011](10 x DVD-9, 16 x DVD-5)\Сезон.5\2. Посмертнй образ. Соавторы. Закон трех отрицаний. DVD9\VIDEO_TS\VTS_04_1.VOB
Формат : MPEG-PS
Размер файла : 1024 Мбайт
Продолжительность : 40 м. 26 с.
Режим общего битрейта : Переменный
Общий поток : 3540 Кбит/сек
Видео
Идентификатор : 224 (0xE0)
Формат : MPEG Video
Версия формата : Version 2
Профиль формата : [email protected]
Настройки формата : BVOP
Параметр BVOP формата : Да
Параметр матрицы формата : По умолчанию
Параметр GOP формата : M=3, N=12
Структура изображения : Frame
Продолжительность : 40 м. 26 с.
Вид битрейта : Переменный
Битрейт : 3022 Кбит/сек
Максимальный битрейт : 8000 Кбит/сек
Ширина : 720 пикселей
Высота : 576 пикселей
Соотношение сторон : 4:3
Частота кадров : 25,000 кадров/сек
Стандарт вещания : PAL
Цветовое пространство : YUV
Субдискретизация насыщенности : 4:2:0
Битовая глубина : 8 бит
Тип развёртки : Чересстрочная
Порядок развёртки : Верхнее поле первое
Метод сжатия : С потерями
Бит/(Пиксели*Кадры) : 0.291
Временной код первого кадра : 00:00:00:00
Оригинал временного кода : Group of pictures header
GOP, открыто/закрыто : Закрыто
Размер потока : 874 Мбайт (85%)
Аудио
Идентификатор : 189 (0xBD)-128 (0x80)
Формат : AC-3
Формат/Информация : Audio Coding 3
Режим смешивания : DVD-Video
Продолжительность : 40 м. 25 с.
Вид битрейта : Постоянный
Битрейт : 448 Кбит/сек
Каналы : 6 каналов
Расположение каналов : Front: L C R, Side: L R, LFE
Частота : 48,0 КГц
Частота кадров : 31,250 кадров/сек (1536 SPF)
Битовая глубина : 16 бит
Метод сжатия : С потерями
Размер потока : 130 Мбайт (13%)
ServiceKind/String : Complete Main
DVDInfo
Скриншоты

Каменская / Сезон 6 / Серии 1-12 из 12 /
Год выпуска: 2011
Производство: Рекун ТВ
Жанр: Детектив
Продолжительность:
Субтитры: нету
Режиссёр: Марат Ким, Егор Анашкин
В ролях: Елена Яковлева, Андрей Ильин, Сергей Никоненко, Станислав Дужников, Дмитрий Нагиев, Олег Андреев, Борис Невзоров, Павел Баршак, Андрей Панин, Наташа Швец (II), Ирина Розанова, Ульяна Лаптева, Инна Пиварс, Олег Хатюшенко, Любовь Руднева, Василий Савинов, Алексей Кирсанов, Роберт Вааб, Константин Коносов, Лариса Халафова, Евгения Калмина, Всеволод Макаров, Эльвира Волошина, Дина Снежная-Рогожина, Алла Малкова
Описание: Анастасия Павловна - лучший аналитик Московского уголовного розыска. Ее острый ум в сочетании с необыкновенной интуицией и проницательностью позволяют ей с блеском разгадывать самые изощренные преступления, вычислять преступников по самым незначительным деталям их поведения, психологии и поступков. Каменская берется за неразрешимые дела и всегда доводит расследование до конца, даже если под угрозу поставлена ее собственная жизнь.
В основу шестого сезона положены романы Александры Марининой: "Вспомнить - нельзя", "Простая комбинация", " Городской тариф", "Замена объекта", "Черный список" и "Пружина для мышеловки". На расследование каждого дела будет отведено две серии, в ходе которых герои не только раскроют преступление, но и смогут разобраться с собственными жизненными неурядицами.
Тех. данные
Качество: DVD9 sample
Формат: DVD-Video
Видео кодек: MPEG2
Аудио кодек: AC3
Видео: PAL, 4:3, (720x576) VBR, 3554 Кбит/сек, 0.343 bit/pixel
Аудио: Russian (Dolby AC3, 6 ch) 448 Кбит/сек
MI
Общее
Полное имя : D:\Торрент\После\Каменская (1-6 сезоны, 1-84 серии из 84)[1999-2011](10 x DVD-9, 16 x DVD-5)\Сезон.6\1. Вспомнить - нельзя. Простая комбинация. Городской тариф. DVD9\VIDEO_TS\VTS_08_1.VOB
Формат : MPEG-PS
Размер файла : 1024 Мбайт
Продолжительность : 35 м. 3 с.
Режим общего битрейта : Переменный
Общий поток : 4083 Кбит/сек
Видео
Идентификатор : 224 (0xE0)
Формат : MPEG Video
Версия формата : Version 2
Профиль формата : [email protected]
Настройки формата : CustomMatrix / BVOP
Параметр BVOP формата : Да
Параметр матрицы формата : Выборочная
Параметр GOP формата : M=3, N=12
Структура изображения : Frame
Продолжительность : 35 м. 3 с.
Вид битрейта : Переменный
Битрейт : 3554 Кбит/сек
Максимальный битрейт : 7500 Кбит/сек
Ширина : 720 пикселей
Высота : 576 пикселей
Соотношение сторон : 4:3
Частота кадров : 25,000 кадров/сек
Стандарт вещания : PAL
Цветовое пространство : YUV
Субдискретизация насыщенности : 4:2:0
Битовая глубина : 8 бит
Тип развёртки : Чересстрочная
Порядок развёртки : Нижнее поле первое
Метод сжатия : С потерями
Бит/(Пиксели*Кадры) : 0.343
Временной код первого кадра : 01:00:00:00
Оригинал временного кода : Group of pictures header
GOP, открыто/закрыто : Закрыто
Размер потока : 891 Мбайт (87%)
Основные цвета : BT.601 PAL
Характеристики трансфера : BT.470 System B, BT.470 System G
Коэффициенты матрицы : BT.601
Аудио
Идентификатор : 189 (0xBD)-128 (0x80)
Формат : AC-3
Формат/Информация : Audio Coding 3
Режим смешивания : DVD-Video
Продолжительность : 35 м. 3 с.
Вид битрейта : Постоянный
Битрейт : 448 Кбит/сек
Каналы : 6 каналов
Расположение каналов : Front: L C R, Side: L R, LFE
Частота : 48,0 КГц
Частота кадров : 31,250 кадров/сек (1536 SPF)
Битовая глубина : 16 бит
Метод сжатия : С потерями
Размер потока : 112 Мбайт (11%)
ServiceKind/String : Complete Main
DVDInfo
Скриншоты
Download
Чтобы скачать .torrent файл необходима регистрация
Сайт не распространяет и не хранит электронные версии произведений, а лишь предоставляет доступ к создаваемому пользователями каталогу ссылок на торрент-файлы, которые содержат только списки хеш-сумм
[Профиль]  [ЛС] 
 

Сударыня

Moderator

Стаж: 11 лет 7 месяцев

Сообщений: 11172

Сударыня · 02-Окт-18 11:44 (спустя 3 дня)

[Цитировать] 

purskyi
Благодарю за все сезоны в одной раздаче и жду дальнейшего оформления.
[Профиль]  [ЛС] 

Сударыня

Moderator

Стаж: 11 лет 7 месяцев

Сообщений: 11172

Сударыня · 10-Окт-18 19:36 (спустя 8 дней)

[Цитировать] 

purskyi
Я дооформила тему, вам осталось только добавить отчёт DVDInfo и семпл. Раздаче поставлю статус проверено , а вы потом всё добавите
[Профиль]  [ЛС] 

bot · 10-Окт-18 19:36 (спустя 7 сек.)

Тема была перенесена из форума Русские сериалы в форум Каменская
Сударыня
 
 
Ответить
Loading...
Error