Фитнес / Серии: 1-7 из 21 (Антон Маслов) [2018, комедия, WEBRip]

Страницы:  1

Ответить
Автор
Сообщение

Pigy

RG Русские сериалы

Стаж: 9 лет 11 месяцев

Сообщений: 3042

Pigy · 01-Окт-18 10:26 (15 дней назад, ред. 16-Окт-18 05:21)

Фитнес
Год выпуска: 2018
Производство: Yellow, Black and White
Жанр: комедия
Продолжительность: ~00:24:00 серия
Субтитры: нет
Режиссёр: Антон Маслов
В ролях: Софья Зайка, Михаил Трухин, Татьяна Храмова, Роман Курцын, Алексей Демидов, Борис Дергачев, Марианна Шульц, Ольга Баранова, Анна Лауренская, Татьяна Сомова, Мария Малиновская, Александр Семчев, Данила Якушев, Евгений Михеев, Дмитрий Чеботарёв, Елизавета Мартинес, Ирина Бякова, Андрей Пынзару
Описание: «Быстрее, выше, сильнее»… В мире Аси такому девизу не место. Так же, как и комплексам из-за лишнего веса. Тем более, есть дела поважнее — подготовка к свадьбе в самом разгаре. Беспечный мир Аси рушится в одну секунду: девушка узнает, что любимого давно не устраивает ее фигура. А лучшие подруги не стесняются злословить о пышных формах за ее спиной. Восстанавливать веру в себя Ася отправляется в спортклуб. Вот только тренировки и программа по снижению веса оказываются не по карману начинающей спортсменке. Выход один — стать сотрудником фитнеса и заниматься бесплатно. Так у Аси появляется новая работа, знакомства и, главное, стимул доказать подругам, бывшему и всему миру, что «невозможное возможно».

Реклама: Нет.
Кинопоиск
Все раздачи сериала
Sample
Качество: WEBRip - 25Kuzmich
Формат: AVI
Видео кодек: XviD
Аудио кодек: AC3
Видео: 720x400 (1.80:1), 25 fps, XviD ~1650 kbps avg, 0.229 bit/pixel
Аудио: 48.0 kHz, AC3 Dolby Digital, 2/0 (L,R) ch, ~ 192 kbps
Внимание! Раздача ведётся путём добавления новых серий
Раздача ведётся путём добавления новых серий, при каждом добавлении создаётся новый торрент. Чтобы начать докачку новой серии, пользователям необходимо сделать следующее:
- Остановить скачивание.
- Удалить старый торрент у себя из клиента (старые серии удалять не надо).
- Скачать новый торрент и запустить его у себя в клиенте вместо старого, при этом указать клиенту путь в старую папку куда и должно происходить скачивание новых серий.
Ваш клиент при этом должен произвести хеширование (проверку) старой папки (если не производит сам - помогите ему сделать это), и будет докачивать только те серии которых у вас ещё нет. Старые серии при этом не удаляются, а продолжают раздаваться!
Если вы уже удалили старые серии, то предотвратить повторную закачку старых серий можно, отжав галочку в соответствующих местах при запуске нового торрента. По возможности, желательно не удалять старые серии как можно дольше, чтобы релизер не столько продолжал раздавать старые серии, а смог сконцентрироваться на новых.
MI
General
Complete name : D:\Fitnes.2018.WEB-DLRip.25Kuzmich\Fitnes.e01.WEB-DLRip.25Kuzmich.avi
Format : AVI
Format/Info : Audio Video Interleave
File size : 350 MiB
Duration : 26 min 29 s
Overall bit rate : 1 850 kb/s
Writing application : VirtualDubMod 1.5.10.3 | www.virtualdub-fr.org || (build 2550/release)
Writing library : VirtualDub build 30080/release
Video
ID : 0
Format : MPEG-4 Visual
Format profile : Advanced [email protected]
Format settings : BVOP1
Format settings, BVOP : 1
Format settings, QPel : No
Format settings, GMC : No warppoints
Format settings, Matrix : Default (MPEG)
Codec ID : XVID
Codec ID/Hint : XviD
Duration : 26 min 29 s
Bit rate : 1 648 kb/s
Width : 720 pixels
Height : 400 pixels
Display aspect ratio : 16:9
Frame rate : 25.000 FPS
Color space : YUV
Chroma subsampling : 4:2:0
Bit depth : 8 bits
Scan type : Progressive
Compression mode : Lossy
Bits/(Pixel*Frame) : 0.229
Stream size : 312 MiB (89%)
Writing library : XviD 1.2.1 (UTC 2008-12-04)
Audio
ID : 1
Format : AC-3
Format/Info : Audio Coding 3
Codec ID : 2000
Duration : 26 min 29 s
Bit rate mode : Constant
Bit rate : 192 kb/s
Channel(s) : 2 channels
Channel positions : Front: L R
Sampling rate : 48.0 kHz
Frame rate : 31.250 FPS (1536 SPF)
Bit depth : 16 bits
Compression mode : Lossy
Delay relative to video : 24 ms
Stream size : 36.4 MiB (10%)
Alignment : Split accross interleaves
Interleave, duration : 40 ms (1.00 video frame)
Interleave, preload duratio : 500 ms
Service kind : Complete Main
Скриншоты
Download
Чтобы скачать .torrent файл необходима регистрация
Сайт не распространяет и не хранит электронные версии произведений, а лишь предоставляет доступ к создаваемому пользователями каталогу ссылок на торрент-файлы, которые содержат только списки хеш-сумм
[Профиль]  [ЛС] 
 

Celta88

Помощник модератора

Стаж: 9 лет 5 месяцев

Сообщений: 4439

Celta88 · 01-Окт-18 11:06 (спустя 40 мин.)

[Цитировать] 



проверено
[Профиль]  [ЛС] 

Pigy

RG Русские сериалы

Стаж: 9 лет 11 месяцев

Сообщений: 3042

Pigy · 10-Окт-18 01:03 (спустя 8 дней, ред. 10-Окт-18 01:03)

[Цитировать] 

1 и 2 серии заменены на серии с другого исходника. Теперь будут выкладываться в этом виде.
Также добавлена 3 серия.
Серии будут выходить по будням по одной серии.

Добавлена 4 серия.
Добавлена 5 серия.
[Профиль]  [ЛС] 

torrtue

Стаж: 9 лет 9 месяцев

Сообщений: 95


torrtue · 12-Окт-18 01:43 (спустя 2 дня)

[Цитировать] 

а когда 6я?
[Профиль]  [ЛС] 

Pigy

RG Русские сериалы

Стаж: 9 лет 11 месяцев

Сообщений: 3042

Pigy · 12-Окт-18 01:48 (спустя 4 мин.)

[Цитировать] 

torrtue писал(а):
76116564а когда 6я?
6-ая будет не раньше понедельника.
Ориентировочно серии выходят с понедельника по четверг по одной, если ничего не изменят.
В этот четверг серии не было.
[Профиль]  [ЛС] 

torrtue

Стаж: 9 лет 9 месяцев

Сообщений: 95


torrtue · 12-Окт-18 03:23 (спустя 1 час 34 мин.)

[Цитировать] 

Pigy писал(а):
76116574
torrtue писал(а):
76116564а когда 6я?
6-ая будет не раньше понедельника.
Ориентировочно серии выходят с понедельника по четверг по одной, если ничего не изменят.
В этот четверг серии не было.
спасибушки вам за ваше усердие )))
[Профиль]  [ЛС] 

Pigy

RG Русские сериалы

Стаж: 9 лет 11 месяцев

Сообщений: 3042

Pigy · 15-Окт-18 00:40 (спустя 2 дня 21 час)

[Цитировать] 

Добавлена 6 серия.
[Профиль]  [ЛС] 

torrtue

Стаж: 9 лет 9 месяцев

Сообщений: 95


torrtue · 15-Окт-18 00:57 (спустя 16 мин.)

[Цитировать] 

Pigy- вы лучший )))
[Профиль]  [ЛС] 

SnowerS

Стаж: 10 лет 8 месяцев

Сообщений: 255

SnowerS · 15-Окт-18 13:36 (спустя 12 часов)

[Цитировать] 

Неожиданно неплохой сериал с тонким юмором!
[Профиль]  [ЛС] 

Pigy

RG Русские сериалы

Стаж: 9 лет 11 месяцев

Сообщений: 3042

Pigy · 16-Окт-18 05:21 (спустя 15 часов)

[Цитировать] 

Добавлена 7 серия.
[Профиль]  [ЛС] 
 
Ответить
Loading...
Error