Морозова / Сезон: 2 / Серии: 1-28 из 40 (Иван Щёголев, Сергей Лесогоров) [2018, детектив, криминал, мелодрама, HDTVRip]

Страницы:  1

Ответить
Автор
Сообщение

Pigy

RG Русские сериалы

Стаж: 9 лет 11 месяцев

Сообщений: 3104

Pigy · 01-Окт-18 22:05 (18 дней назад, ред. 19-Окт-18 15:49)

Морозова - 2
Год выпуска: 2018
Производство: "DIXI-TV"
Жанр: детектив, криминал, мелодрама
Продолжительность: ~00:49:00 серия
Субтитры: нет
Режиссёр: Иван Щёголев, Сергей Лесогоров
В ролях: Тара Амирханова, Дмитрий Мазуров, Андрей Носков, Дмитрий Блохин, Татьяна Лянник, Пётр Грезев, Кирилл Снегирёв, Дарья Корнева, Ольга Баранова, Александр Коротков, Александр Левин, Анастасия Бухарцева, Александр Касаткин, Олег Тарасов, Юлия Носова, Андрей Москвичёв, Максим Карушев, Дарья Петриченко, Валерий Сторожик
Описание: В новом сезоне майор юстиции, талантливый эксперт-криминалист Морозова продолжает расследовать преступления благодаря уликам и следам, которые она и ее команда обнаруживают на месте преступления, и восстанавливает по ним картину происшествия. Однако если на службе равных Морозовой нет, то ее личная жизнь – сплошное разочарование. Попытка построить в первом сезоне отношения с Павлом не увенчалась успехом, и Анна совсем уж было поставила на себе крест. Но когда преступник похищает Ксюшу, дочь Морозовой, Анна встречается с майором Ворониным, однокурсником по Академии, а ныне сотрудником Следственного Комитета, который был влюблен в нее еще в студенчестве. Кроме того, у начальника УМВД Родионовой появляется новый заместитель – подполковник Маевский, красавец-мужчина. Дисциплинарная провинность, из-за которой его сослали в Калугу, лишь придает ему шарм. Маевский серьезно решил приударить за неприступной Морозовой. А тут еще олигарх Туманов… В итоге Морозова оказывается перед непростым выбором. Вдобавок появляется еще одна серьезная проблема. Благодаря своей принципиальности, она перешла дорогу городской бизнес-элите, сросшейся с административной верхушкой. Морозову решено устранить…

Реклама: Нет.
Кинопоиск
Все раздачи сериала
Sample
Качество: HDTVRip - Files-x
Формат: AVI
Видео кодек: XviD
Аудио кодек: AC3
Видео: 720x400 (1.80:1), 25 fps, XviD build 73 ~1500 kbps avg, 0.208 bit/pixel
Аудио: 48.0 kHz, AC3 Dolby Digital, 2/0 (L,R) ch, ~ 192 kbps
Внимание! Раздача ведётся путём добавления новых серий
Раздача ведётся путём добавления новых серий, при каждом добавлении создаётся новый торрент. Чтобы начать докачку новой серии, пользователям необходимо сделать следующее:
- Остановить скачивание.
- Удалить старый торрент у себя из клиента (старые серии удалять не надо).
- Скачать новый торрент и запустить его у себя в клиенте вместо старого, при этом указать клиенту путь в старую папку куда и должно происходить скачивание новых серий.
Ваш клиент при этом должен произвести хеширование (проверку) старой папки (если не производит сам - помогите ему сделать это), и будет докачивать только те серии которых у вас ещё нет. Старые серии при этом не удаляются, а продолжают раздаваться!
Если вы уже удалили старые серии, то предотвратить повторную закачку старых серий можно, отжав галочку в соответствующих местах при запуске нового торрента. По возможности, желательно не удалять старые серии как можно дольше, чтобы релизер не столько продолжал раздавать старые серии, а смог сконцентрироваться на новых.
MI
General
Complete name : D:\Морозова 2 сезон.2018.HDTVRiip.Files-x\01.Морозова 2 сезон.2018.HDTVRiip.Files-x.avi
Format : AVI
Format/Info : Audio Video Interleave
File size : 597 MiB
Duration : 49 min 1 s
Overall bit rate : 1 701 kb/s
Writing application : VirtualDubMod 1.5.10.3 | www.virtualdub-fr.org || (build 2550/release)
Writing library : VirtualDubMod build 2550/release
Video
ID : 0
Format : MPEG-4 Visual
Format profile : Advanced [email protected]
Format settings : BVOP1 / Custom Matrix
Format settings, BVOP : 1
Format settings, QPel : No
Format settings, GMC : No warppoints
Format settings, Matrix : Custom
Codec ID : XVID
Codec ID/Hint : XviD
Duration : 49 min 1 s
Bit rate : 1 500 kb/s
Width : 720 pixels
Height : 400 pixels
Display aspect ratio : 16:9
Frame rate : 25.000 FPS
Color space : YUV
Chroma subsampling : 4:2:0
Bit depth : 8 bits
Scan type : Progressive
Compression mode : Lossy
Bits/(Pixel*Frame) : 0.208
Stream size : 526 MiB (88%)
Writing library : XviD 73
Audio
ID : 1
Format : AC-3
Format/Info : Audio Coding 3
Codec ID : 2000
Duration : 49 min 1 s
Bit rate mode : Constant
Bit rate : 192 kb/s
Channel(s) : 2 channels
Channel positions : Front: L R
Sampling rate : 48.0 kHz
Frame rate : 31.250 FPS (1536 SPF)
Bit depth : 16 bits
Compression mode : Lossy
Stream size : 67.3 MiB (11%)
Alignment : Split accross interleaves
Interleave, duration : 40 ms (1.00 video frame)
Interleave, preload duratio : 500 ms
Service kind : Complete Main
Скриншоты
Download
Чтобы скачать .torrent файл необходима регистрация
Сайт не распространяет и не хранит электронные версии произведений, а лишь предоставляет доступ к создаваемому пользователями каталогу ссылок на торрент-файлы, которые содержат только списки хеш-сумм
[Профиль]  [ЛС] 
 

Celta88

Помощник модератора

Стаж: 9 лет 5 месяцев

Сообщений: 4465

Celta88 · 01-Окт-18 22:14 (спустя 9 мин.)

[Цитировать] 



проверено
[Профиль]  [ЛС] 

Pigy

RG Русские сериалы

Стаж: 9 лет 11 месяцев

Сообщений: 3104

Pigy · 04-Окт-18 11:42 (спустя 2 дня 13 часов, ред. 04-Окт-18 11:42)

[Цитировать] 

Добавлена 3-4 серии.
Добавлена 5-6 серии.
[Профиль]  [ЛС] 

Тофана

Стаж: 6 лет 2 месяца

Сообщений: 12

Тофана · 04-Окт-18 18:12 (спустя 6 часов)

[Цитировать] 

Серий не 40, а как и в 1 сезоне, 50.
[Профиль]  [ЛС] 

Pigy

RG Русские сериалы

Стаж: 9 лет 11 месяцев

Сообщений: 3104

Pigy · 05-Окт-18 21:30 (спустя 1 день 3 часа, ред. 05-Окт-18 21:30)

[Цитировать] 

Тофана писал(а):
76072842Серий не 40, а как и в 1 сезоне, 50.
Откуда информация?
Добавлена 7-8 серии.
Добавлена 9-10 серии.
[Профиль]  [ЛС] 

Agent_KGB

Стаж: 5 лет 8 месяцев

Сообщений: 101


Agent_KGB · 08-Окт-18 01:36 (спустя 2 дня 4 часа)

[Цитировать] 

а откуда взялся Авдеев? вроде его в первом сезоне убили?
[Профиль]  [ЛС] 

Pigy

RG Русские сериалы

Стаж: 9 лет 11 месяцев

Сообщений: 3104

Pigy · 09-Окт-18 11:30 (спустя 1 день 9 часов)

[Цитировать] 

Добавлены 11-12 серии.
[Профиль]  [ЛС] 

z0lik0ca1

Стаж: 4 года 5 месяцев

Сообщений: 90


z0lik0ca1 · 09-Окт-18 18:42 (спустя 7 часов)

[Цитировать] 

Agent_KGB писал(а):
76094628а откуда взялся Авдеев? вроде его в первом сезоне убили?
двойник
[Профиль]  [ЛС] 

Pigy

RG Русские сериалы

Стаж: 9 лет 11 месяцев

Сообщений: 3104

Pigy · 12-Окт-18 20:02 (спустя 3 дня, ред. 12-Окт-18 20:02)

[Цитировать] 

Добавлены 13-14 серии.
Добавлены 15-16 серии.
Добавлены 17-18 серии.
Добавлены 19-20 серии.
[Профиль]  [ЛС] 

131192and

Стаж: 8 лет 11 месяцев

Сообщений: 2


131192and · 17-Окт-18 01:19 (спустя 4 дня)

[Цитировать] 

А где продолжение? Очень хочется!
[Профиль]  [ЛС] 

Pigy

RG Русские сериалы

Стаж: 9 лет 11 месяцев

Сообщений: 3104

Pigy · 19-Окт-18 15:49 (спустя 2 дня 14 часов, ред. 19-Окт-18 15:49)

[Цитировать] 

Добавлены 21-24 серии.
Добавлены 25-26 серии.
Добавлены 27-28 серии.
[Профиль]  [ЛС] 
 
Ответить
Loading...
Error