Адрес РуТрекера для пользователей РФ - 11.MainTracker.org

Расскажи друзьям:  

Московская борзая / Сезон: 2 / Серии: 1-16 из 16 (Роман Просвирнин) [2018, криминал, мелодрама, WEBRip 1080p]

Страницы:  1

Ответить
Автор
Сообщение

Pigy

RG Русские сериалы

Стаж: 10 лет 1 месяц

Сообщений: 3805

Pigy · 02-Окт-18 14:52 (2 месяца 16 дней назад, ред. 12-Окт-18 12:15)

Московская борзая 2
Год выпуска: 2018
Производство: кинокомпания «Русское»
Жанр: криминал, мелодрама
Продолжительность: ~00:52:00 серия
Субтитры: нет
Режиссёр: Роман Просвирнин
В ролях: Екатерина Климова, Ольга Красько, Олег Алмазов, Александр Ратников, Сергей Мухин, Николай Лунин, Татьяна Кузнецова, Михаил Владимиров, Владимир Литвинов, Арсений Гусев, Владимир Терещенко, Таисия Ручковская, Руслан Ягудин, Дарья Логинова, Денис Васильев, Олег Морозов, Тихон Бузников, Сергей Шеховцов, Александр Стефанцов, Евгений Вильтовский, Владислав Резник, Сергей Петров, Светлана Чуйкина, Надежда Бахтина, Анастасия Балякина, Константин Кузьмичёв, Валентин Самохин, Игорь Поселенов
Описание: Новый сезон по-настоящему удивит телезрителей, ведь на этот раз события развернутся... в подсознании главной героини! Распутывая очередное преступление, Борзова сама становится жертвой. По сценарию, среди груды тел следователи находят полуживую Алевтину. Чтобы распутать головоломку и разобраться в трагедии, сыщики решаются на небывалый эксперимент. Интрига будет строиться вокруг нового персонажа в исполнении актрисы Екатерины Климовой. Именно её героине предстоит внедриться в голову майора Борзовой.

Реклама: Нет.
Кинопоиск
Все раздачи сериала
Sample
Качество: WEBRip 1080p - Olyanchik
Формат: MKV
Видео кодек: H.264
Аудио кодек: AC3
Видео: MPEG4 AVC Video, H264, 16:9, 1920x1080, 25 fps, ~2500 kbps, 0.048 bit/pixel
Аудио: AC3 Dolby Digital, 44.1 kHz, 2/0 (L,R) ch, 192 kbps
Внимание! Раздача ведётся путём добавления новых серий
Раздача ведётся путём добавления новых серий, при каждом добавлении создаётся новый торрент. Чтобы начать докачку новой серии, пользователям необходимо сделать следующее:
- Остановить скачивание.
- Удалить старый торрент у себя из клиента (старые серии удалять не надо).
- Скачать новый торрент и запустить его у себя в клиенте вместо старого, при этом указать клиенту путь в старую папку куда и должно происходить скачивание новых серий.
Ваш клиент при этом должен произвести хеширование (проверку) старой папки (если не производит сам - помогите ему сделать это), и будет докачивать только те серии которых у вас ещё нет. Старые серии при этом не удаляются, а продолжают раздаваться!
Если вы уже удалили старые серии, то предотвратить повторную закачку старых серий можно, отжав галочку в соответствующих местах при запуске нового торрента. По возможности, желательно не удалять старые серии как можно дольше, чтобы релизер не столько продолжал раздавать старые серии, а смог сконцентрироваться на новых.
MI
General
Unique ID : 189337496787286733658260028819939244634 (0x8E711351B9F4BFF1A89561B548FFBA5A)
Complete name : D:\Moskovskaya.borzaya 2.WEB-DL.(1080р).Kinozal-Reliz.by.Olyanchik\01.Moskovskaya.borzaya 2.WEB-DL.(1080р).Kinozal-Reliz.by.Olyanchik.mkv
Format : Matroska
Format version : Version 4 / Version 2
File size : 980 MiB
Duration : 51 min 1 s
Overall bit rate : 2 685 kb/s
Encoded date : UTC 2018-10-01 18:13:18
Writing application : mkvmerge v9.6.0 ('Slave To Your Mind') 64bit
Writing library : libebml v1.3.4 + libmatroska v1.4.5
Video
ID : 1
Format : AVC
Format/Info : Advanced Video Codec
Format profile : [email protected]
Format settings : CABAC / 2 Ref Frames
Format settings, CABAC : Yes
Format settings, ReFrames : 2 frames
Codec ID : V_MPEG4/ISO/AVC
Duration : 51 min 1 s
Bit rate : 2 491 kb/s
Width : 1 920 pixels
Height : 1 080 pixels
Display aspect ratio : 16:9
Frame rate mode : Constant
Frame rate : 25.000 FPS
Color space : YUV
Chroma subsampling : 4:2:0
Bit depth : 8 bits
Scan type : Progressive
Bits/(Pixel*Frame) : 0.048
Stream size : 909 MiB (93%)
Default : Yes
Forced : No
Color range : Limited
Color primaries : BT.709
Transfer characteristics : BT.709
Matrix coefficients : BT.709
Audio
ID : 2
Format : AC-3
Format/Info : Audio Coding 3
Codec ID : A_AC3
Duration : 51 min 1 s
Bit rate mode : Constant
Bit rate : 192 kb/s
Channel(s) : 2 channels
Channel positions : Front: L R
Sampling rate : 44.1 kHz
Frame rate : 28.711 FPS (1536 SPF)
Bit depth : 16 bits
Compression mode : Lossy
Stream size : 70.1 MiB (7%)
Service kind : Complete Main
Default : Yes
Forced : No
Скриншоты
Download
Чтобы скачать .torrent файл необходима регистрация
Сайт не распространяет и не хранит электронные версии произведений, а лишь предоставляет доступ к создаваемому пользователями каталогу ссылок на торрент-файлы, которые содержат только списки хеш-сумм
[Профиль]  [ЛС] 
 

Pigy

RG Русские сериалы

Стаж: 10 лет 1 месяц

Сообщений: 3805

Pigy · 05-Окт-18 00:29 (спустя 2 дня 9 часов, ред. 05-Окт-18 00:29)

[Цитировать] 

Добавлены 3-4 серии.
Добавлены 5-6 серии.
Добавлены 7-8 серии.
[Профиль]  [ЛС] 

jan_ko

Стаж: 8 лет 7 месяцев

Сообщений: 3


jan_ko · 11-Окт-18 09:17 (спустя 6 дней)

[Цитировать] 

Продолжение будет?
[Профиль]  [ЛС] 

Pigy

RG Русские сериалы

Стаж: 10 лет 1 месяц

Сообщений: 3805

Pigy · 12-Окт-18 12:16 (спустя 1 день 2 часа)

[Цитировать] 

Добавлены 9-16 серии.
[Профиль]  [ЛС] 

Шога

Стаж: 9 лет 4 месяца

Сообщений: 253


Шога · 15-Окт-18 09:09 (спустя 2 дня 20 часов)

[Цитировать] 

не...как любит говорить один мой знакомый-опять всю идею изговняли...такого пона........остальное я вычеркнул,из цензурных соображений.1 сезон просмотрел на одном дыхании...не ел,не спал и даже возможно в туалет не ходил.а 2-ой...серию посмотрел и как-то...рука не спишит нажимать на кнопочку,смотреть 2-ю серию.и зная себя,2-ой сезон я буду смотреть долго и упорно.но к весне надеюсь просмотреть.
[Профиль]  [ЛС] 
 
Ответить
Loading...
Error