Адрес РуТрекера для пользователей РФ - 11.MainTracker.org

Расскажи друзьям:  

Шаг в бездну / Сезон: 1 / Серии: 1-4 из 4 (Дмитрий Аверин) [2018, детектив, криминал, SATRip]

Страницы:  1

Ответить
Автор
Сообщение

Сме_ша_рик

Moderator

Стаж: 10 лет

Сообщений: 1840

Сме_ша_рик · 06-Окт-18 22:37 (2 месяца 12 дней назад)

Шаг в бездну
Год выпуска: 2018
Производство: Россия Leandra
Жанр: детектив, криминал
Продолжительность: 00.44.00
Субтитры: нет
Режиссёр: Дмитрий Аверин
В ролях: Алиса Варова, Марк Вдовин, Елена Цыплакова, Алексей Нилов, Антон Багров, Аполлинария Кирилец, Игорь Юдин, Оксана Скакун, Георгий Маришин, Борис Талах, Юрий Пимкин, Ирина Демидкина
Описание: Молодой биолог Денис Алчанов привозит из Северной столицы невесту Нику. Он готов подарить ей рай своего детства: море, солнце и все красоты заповедника "Аджерха-Чарлык". Но медовый месяц оборачивается кошмаром. Во время прыжка с парашютом Ника и инструктор Валентина становятся свидетелями страшной аварии: внизу, в ущелье, разбивается машина. На земле о происшествии ничего не знают. Запись с мини-камеры парашюта таинственно исчезает. А на следующий день Валентину находят мёртвой.
Реклама отсутствует

Сэмпл: https://www.sendspace.com/file/lskegm
Качество: SATRip
Формат: AVI
Видео кодек: XviD
Аудио кодек: AC3
Видео: XVID; 720х400 (16:9) 1546 Кбит/сек; 25,000 кадров/сек; Бит/(Пиксели*Кадры): 0.215
Аудио: AC-3; 192 Кбит/сек; 2 канала; 48,0 КГц
MI
Общее
Полное имя : D:\закачки\Shag.v.bezdnu.2018.XviD.Satrip.GeneralFilm\Shag.v.bezdnu.e02.avi
Формат : AVI
Формат/Информация : Audio Video Interleave
Размер файла : 574 Мбайт
Продолжительность : 45 м. 55 с.
Общий поток : 1748 Кбит/сек
Программа кодирования : VirtualDubMod 1.5.10.3 | www.virtualdub-fr.org || (build 2550/release)
Библиотека кодирования : VirtualDubMod build 2550/release
Видео
Идентификатор : 0
Формат : MPEG-4 Visual
Профиль формата : Advanced [email protected]
Настройки формата : BVOP1 / Custom Matrix
Параметр BVOP формата : 1
Параметр QPel формата : Нет
Параметр GMC формата : Без точки перехода
Параметр матрицы формата : Выборочная
Идентификатор кодека : XVID
Идентификатор кодека/Подсказка : XviD
Продолжительность : 45 м. 55 с.
Битрейт : 1546 Кбит/сек
Ширина : 720 пикселей
Высота : 400 пикселей
Соотношение сторон : 16:9
Частота кадров : 25,000 кадров/сек
Цветовое пространство : YUV
Субдискретизация насыщенности : 4:2:0
Битовая глубина : 8 бит
Тип развёртки : Прогрессивная
Метод сжатия : С потерями
Бит/(Пиксели*Кадры) : 0.215
Размер потока : 508 Мбайт (88%)
Библиотека кодирования : XviD 73
Аудио
Идентификатор : 1
Формат : AC-3
Формат/Информация : Audio Coding 3
Идентификатор кодека : 2000
Продолжительность : 45 м. 55 с.
Вид битрейта : Постоянный
Битрейт : 192 Кбит/сек
Каналы : 2 канала
Расположение каналов : Front: L R
Частота : 48,0 КГц
Частота кадров : 31,250 кадров/сек (1536 SPF)
Битовая глубина : 16 бит
Метод сжатия : С потерями
Размер потока : 63,1 Мбайт (11%)
Выравнивание : Разделение по промежуткам
Продолжительность промежутка : 40 мс. (1,00 видеокадр)
Время предзагрузки промежутка : 500 мс.
ServiceKind/String : Complete Main
Скриншоты
Предыдущие и альтернативные раздачи
Релиз:
Download
Чтобы скачать .torrent файл необходима регистрация
Сайт не распространяет и не хранит электронные версии произведений, а лишь предоставляет доступ к создаваемому пользователями каталогу ссылок на торрент-файлы, которые содержат только списки хеш-сумм
[Профиль]  [ЛС] 
 

Celta88

Moderator

Стаж: 9 лет 7 месяцев

Сообщений: 4856

Celta88 · 06-Окт-18 22:46 (спустя 8 мин.)

[Цитировать] 



проверено
[Профиль]  [ЛС] 

kvinax101

Стаж: 8 лет 3 месяца

Сообщений: 315


kvinax101 · 10-Окт-18 01:50 (спустя 3 дня, ред. 10-Окт-18 01:50)

[Цитировать] 

Коктебель, мыс Хамелеон, Золотые ворота, Тихая бухта, планеристы...Там, в самом деле, здорово... Заповедник, надо полагать, Кара-Даг?
Крымская природа - прекрасна! ...Чего нельзя сказать о самом кино...
ЖЕНСКИЙ детектив...Посредственный...Актёры, в основном - никакие. Нилов, конечно, хороший актёр, но в этом сериале играет "не напрягаясь".
Лучше всех, ИМХО, сыграл "главный злодей". К тому же кто ГЗ до последней серии непросто определить.
[Профиль]  [ЛС] 

Сергей646

Стаж: 9 лет 6 месяцев

Сообщений: 34


Сергей646 · 11-Окт-18 16:29 (спустя 1 день 14 часов)

[Цитировать] 

Нилов со своим образом поднадоел,к примеру предложат ему роль Берии,он будет сниматься со своей бородой....
[Профиль]  [ЛС] 

Igor1948

Стаж: 8 лет 1 месяц

Сообщений: 336

Igor1948 · 12-Окт-18 08:21 (спустя 15 часов)

[Цитировать] 

Сме_ша_рик
[Профиль]  [ЛС] 

bess52

Стаж: 7 лет 6 месяцев

Сообщений: 2


bess52 · 12-Окт-18 10:39 (спустя 2 часа 17 мин.)

[Цитировать] 

Полнейшая чушь,что сюжет,что игра актеров...
[Профиль]  [ЛС] 

Celta88

Moderator

Стаж: 9 лет 7 месяцев

Сообщений: 4856

Celta88 · 12-Окт-18 22:44 (спустя 12 часов)

[Цитировать] 

bess52 писал(а):
76117693Полнейшая чушь,что сюжет,что игра актеров...
Кому что
[Профиль]  [ЛС] 

.VIKA.

Стаж: 8 лет 7 месяцев

Сообщений: 557

.VIKA. · 14-Окт-18 13:36 (спустя 1 день 14 часов)

[Цитировать] 

смотреть можно :)))
[Профиль]  [ЛС] 

Сме_ша_рик

Moderator

Стаж: 10 лет

Сообщений: 1840

Сме_ша_рик · 14-Окт-18 22:08 (спустя 8 часов, ред. 14-Окт-18 22:08)

[Цитировать] 

Igor1948
Пожалуйста.
[Профиль]  [ЛС] 
 
Ответить
Loading...
Error