Морозова / Сезон: 2 / Серии: 1-22 из 40 (Иван Щёголев, Сергей Лесогоров) [2018, детектив, криминал, мелодрама, HDTV 1080i]

Страницы:  1

Ответить
Автор
Сообщение

Wentworth_Miller

Помощник модератора

Стаж: 9 лет 7 месяцев

Сообщений: 5302

Wentworth_Miller · 08-Окт-18 23:33 (7 дней назад, ред. 16-Окт-18 00:05)

Морозова
Год выпуска: 2018
Производство: "DIXI-TV"
Жанр: детектив, криминал, мелодрама
Продолжительность: ~ 00:49:00
Субтитры: нет
Режиссёр: Иван Щёголев, Сергей Лесогоров
В ролях: Тара Амирханова, Дмитрий Мазуров, Андрей Носков, Дмитрий Блохин, Татьяна Лянник, Пётр Грезев, Кирилл Снегирёв, Дарья Корнева, Ольга Баранова, Александр Коротков, Александр Левин, Анастасия Бухарцева, Александр Касаткин, Олег Тарасов, Юлия Носова, Андрей Москвичёв, Максим Карушев, Дарья Петриченко, Валерий Сторожик
Описание: В новом сезоне майор юстиции, талантливый эксперт-криминалист Морозова продолжает расследовать преступления благодаря уликам и следам, которые она и ее команда обнаруживают на месте преступления, и восстанавливает по ним картину происшествия. Однако если на службе равных Морозовой нет, то ее личная жизнь – сплошное разочарование. Попытка построить в первом сезоне отношения с Павлом не увенчалась успехом, и Анна совсем уж было поставила на себе крест. Но когда преступник похищает Ксюшу, дочь Морозовой, Анна встречается с майором Ворониным, однокурсником по Академии, а ныне сотрудником Следственного Комитета, который был влюблен в нее еще в студенчестве. Кроме того, у начальника УМВД Родионовой появляется новый заместитель – подполковник Маевский, красавец-мужчина. Дисциплинарная провинность, из-за которой его сослали в Калугу, лишь придает ему шарм. Маевский серьезно решил приударить за неприступной Морозовой. А тут еще олигарх Туманов… В итоге Морозова оказывается перед непростым выбором. Вдобавок появляется еще одна серьезная проблема. Благодаря своей принципиальности, она перешла дорогу городской бизнес-элите, сросшейся с административной верхушкой. Морозову решено устранить…
Реклама: Нет
Сэмпл: http://multi-up.com/1211061
Качество: HDTV 1080i - Nikolspup
Формат: TS
Видео кодек: H.264
Аудио кодек: MP2
Видео: MPEG-4 AVC, ~ 7100 Кбит/с, 1920x1080, 25 кадр/с
Аудио: MP2, 2 ch, 48 kHz, 192 Кбит/с
MI
Общее
Идентификатор : 1 (0x1)
Полное имя : E:\Morozova.s.02.2018.HDTV.(1080i).Nikolspup\Morozova.s.02.(01.seriya).2018.HDTV.(1080i).Nikolspup.ts
Формат : MPEG-TS
Размер файла : 2,62 Гбайт
Продолжительность : 49 м. 2 с.
Режим общего битрейта : Переменный
Общий поток : 7662 Кбит/сек
Видео
Идентификатор : 2911 (0xB5F)
Идентификатор меню : 1192 (0x4A8)
Формат : AVC
Формат/Информация : Advanced Video Codec
Профиль формата : [email protected]
Настройки формата : CABAC / 4 Ref Frames
Параметр CABAC формата : Да
Параметр RefFrames формата : 4 кадра
Идентификатор кодека : 27
Продолжительность : 49 м. 2 с.
Битрейт : 7089 Кбит/сек
Ширина : 1920 пикселей
Высота : 1080 пикселей
Соотношение сторон : 16:9
Частота кадров : 25,000 кадров/сек
Цветовое пространство : YUV
Субдискретизация насыщенности : 4:2:0
Битовая глубина : 8 бит
Тип развёртки : MBAFF
Метод сохранения типа развёртки : Чередующиеся поля
Порядок развёртки : Верхнее поле первое
Бит/(Пиксели*Кадры) : 0.137
Размер потока : 2,43 Гбайт (93%)
Аудио
Идентификатор : 2912 (0xB60)
Идентификатор меню : 1192 (0x4A8)
Формат : MPEG Audio
Версия формата : Version 1
Профиль формата : Layer 2
Настройки формата : Joint stereo / Intensity Stereo + MS Stereo
Идентификатор кодека : 3
Продолжительность : 49 м. 2 с.
Вид битрейта : Постоянный
Битрейт : 192 Кбит/сек
Каналы : 2 канала
Частота : 48,0 КГц
Частота кадров : 41,667 кадра/сек (1152 SPF)
Метод сжатия : С потерями
Задержка видео : -40 мс.
Размер потока : 67,4 Мбайт (3%)
Язык : Russian

Скриншоты

Внимание! Раздача ведётся путём добавления новых серий
Внимание! Раздача ведётся путём добавления новых серий; при каждом добавлении создаётся новый торрент. Чтобы начать докачку новой серии, пользователям необходимо сделать следующее:
(1) остановить скачивание,
(2) удалить старый торрент у себя из клиента (старые серии удалять не надо),
(3) скачать новый торрент и запустить его у себя в клиенте вместо старого, при этом указать клиенту путь в старую папку куда и должно происходить скачивание новых серий.
Ваш клиент при этом должен произвести хеширование (проверку) старой папки (если не производит сам - помогите ему сделать это), и будет докачивать только те серии которых у вас ещё нет. Старые серии при этом не удаляются, а продолжают раздаваться!
Eсли вы уже удалили старые серии, то предотвратить повторную закачку старых серий можно, отжав галочку в соответствующих местах при запуске нового торрента. По возможности, желательно не удалять старые серии как можно дольше чтобы релизёр не столько продолжал раздавать старые серии, а смог сконцентрироваться на новых.

Предыдущие и альтернативные раздачи
Download
Чтобы скачать .torrent файл необходима регистрация
Сайт не распространяет и не хранит электронные версии произведений, а лишь предоставляет доступ к создаваемому пользователями каталогу ссылок на торрент-файлы, которые содержат только списки хеш-сумм
[Профиль]  [ЛС] 
 

Wentworth_Miller

Помощник модератора

Стаж: 9 лет 7 месяцев

Сообщений: 5302

Wentworth_Miller · 12-Окт-18 22:34 (спустя 3 дня, ред. 12-Окт-18 22:34)

[Цитировать] 

+ 13-16
+ 17-18
+ 19-20
[Профиль]  [ЛС] 

Wentworth_Miller

Помощник модератора

Стаж: 9 лет 7 месяцев

Сообщений: 5302

Wentworth_Miller · 16-Окт-18 00:05 (спустя 3 дня)

[Цитировать] 

+ 21-22
[Профиль]  [ЛС] 
 
Ответить
Loading...
Error