Впереди день / Серии: 1-8 из 8 (Евгений Семенов) [2018, драма, мелодрама, HDTVRip 720p]

Страницы:  1

Ответить
Автор
Сообщение

Pigy

RG Русские сериалы

Стаж: 9 лет 11 месяцев

Сообщений: 3041

Pigy · 09-Окт-18 12:31 (7 дней назад, ред. 12-Окт-18 22:53)

Впереди день
Год выпуска: 2018
Производство: Кинокомпания "Русское"
Жанр: драма, мелодрама
Продолжительность: ~00:50:00 серия
Субтитры: нет
Режиссёр: Евгений Семенов
В ролях: Екатерина Редникова, Ирина Горячева, Мария Куликова, Сергей Горобченко, Майя Горбань, Александра Тулинова, Яна Гурьянова, Михаил Пшеничный, Александр Никитин, Александр Асташёнок, Виталий Егоров, Денис Старков, Евгений Березовский, Севастьян Бугаев

Описание: Лихие 90-е. В центре сюжета три женщины — подруги, жены «новых русских» Нина и Лена и Мила, домработница Нины. По странному совпадению всем трем скоро рожать. Как выясняется, от Кирилла беременна не только его жена Нина, но и Мила. Женщины встречаются в ресторане, чтобы выяснить отношения и разобраться в сложившейся ситуации. Внезапно вспыхнувшая бандитская разборка становится причиной неожиданного поворота. У женщин начинаются роды… Проходит 17 лет. Их дочки — Ира, Оля и Маша, которые родились в один день, — лучшие подруги. Они собираются вместе, чтобы отметить общий день рождения. Но веселье омрачает появление незваного гостя….
Реклама: Нет.
Кинопоиск
Все раздачи сериала
Sample
Качество: HDTVRip 720p - Nikolspup
Формат: MKV
Видео кодек: H.264
Аудио кодек: AC3
Видео: MPEG4 AVC Video, H264, 16:9, 1280x720, 25 fps, ~4000 kbps, 0.174 bit/pixel
Аудио: AC3 Dolby Digital, 48 kHz, 2/0 (L,R) ch, 192 kbp
Внимание! Раздача ведётся путём добавления новых серий
Раздача ведётся путём добавления новых серий, при каждом добавлении создаётся новый торрент. Чтобы начать докачку новой серии, пользователям необходимо сделать следующее:
- Остановить скачивание.
- Удалить старый торрент у себя из клиента (старые серии удалять не надо).
- Скачать новый торрент и запустить его у себя в клиенте вместо старого, при этом указать клиенту путь в старую папку куда и должно происходить скачивание новых серий.
Ваш клиент при этом должен произвести хеширование (проверку) старой папки (если не производит сам - помогите ему сделать это), и будет докачивать только те серии которых у вас ещё нет. Старые серии при этом не удаляются, а продолжают раздаваться!
Если вы уже удалили старые серии, то предотвратить повторную закачку старых серий можно, отжав галочку в соответствующих местах при запуске нового торрента. По возможности, желательно не удалять старые серии как можно дольше, чтобы релизер не столько продолжал раздавать старые серии, а смог сконцентрироваться на новых.
MI
General
Unique ID : 216777301844502441263184824030092007833 (0xA315CA2907E01AFBB9EC92F532F31999)
Complete name : D:\Vperedi.den.2018.HDTVRip.(720p).Nikolspup\Vperedi.den.(01.seriya).2018.HDTVRip.(720p).Nikolspup.mkv
Format : Matroska
Format version : Version 4 / Version 2
File size : 1.47 GiB
Duration : 50 min 17 s
Overall bit rate : 4 194 kb/s
Encoded date : UTC 2018-10-09 02:53:02
Writing application : mkvmerge v7.8.0 ('River Man') 32bit built on Mar 27 2015 16:18:02
Writing library : libebml v1.3.1 + libmatroska v1.4.2
Video
ID : 1
Format : AVC
Format/Info : Advanced Video Codec
Format profile : [email protected]
Format settings : CABAC / 9 Ref Frames
Format settings, CABAC : Yes
Format settings, ReFrames : 9 frames
Codec ID : V_MPEG4/ISO/AVC
Duration : 50 min 17 s
Bit rate : 4 000 kb/s
Width : 1 280 pixels
Height : 720 pixels
Display aspect ratio : 16:9
Frame rate mode : Constant
Frame rate : 25.000 FPS
Color space : YUV
Chroma subsampling : 4:2:0
Bit depth : 8 bits
Scan type : Progressive
Bits/(Pixel*Frame) : 0.174
Stream size : 1.41 GiB (95%)
Writing library : x264 core 146 r2538 121396c
Encoding settings : cabac=1 / ref=9 / deblock=1:-2:-1 / analyse=0x3:0x133 / me=umh / subme=9 / psy=1 / psy_rd=1.00:0.20 / mixed_ref=1 / me_range=32 / chroma_me=1 / trellis=2 / 8x8dct=1 / cqm=0 / deadzone=21,11 / fast_pskip=1 / chroma_qp_offset=-3 / threads=16 / lookahead_threads=8 / sliced_threads=0 / nr=0 / decimate=1 / interlaced=0 / bluray_compat=0 / constrained_intra=0 / bframes=11 / b_pyramid=2 / b_adapt=2 / b_bias=0 / direct=1 / weightb=1 / open_gop=0 / weightp=2 / keyint=250 / keyint_min=25 / scenecut=40 / intra_refresh=0 / rc=2pass / mbtree=0 / bitrate=4000 / ratetol=1.0 / qcomp=0.60 / qpmin=0 / qpmax=69 / qpstep=4 / cplxblur=20.0 / qblur=0.5 / ip_ratio=1.40 / pb_ratio=1.30 / aq=3:1.00
Default : No
Forced : No
Color range : Limited
Color primaries : BT.709
Transfer characteristics : BT.709
Matrix coefficients : BT.709
Audio
ID : 2
Format : AC-3
Format/Info : Audio Coding 3
Codec ID : A_AC3
Duration : 50 min 17 s
Bit rate mode : Constant
Bit rate : 192 kb/s
Channel(s) : 2 channels
Channel positions : Front: L R
Sampling rate : 48.0 kHz
Frame rate : 31.250 FPS (1536 SPF)
Bit depth : 16 bits
Compression mode : Lossy
Stream size : 69.1 MiB (5%)
Language : Russian
Service kind : Complete Main
Default : Yes
Forced : Yes
Скриншоты
Download
Чтобы скачать .torrent файл необходима регистрация
Сайт не распространяет и не хранит электронные версии произведений, а лишь предоставляет доступ к создаваемому пользователями каталогу ссылок на торрент-файлы, которые содержат только списки хеш-сумм
[Профиль]  [ЛС] 
 

Pigy

RG Русские сериалы

Стаж: 9 лет 11 месяцев

Сообщений: 3041

Pigy · 12-Окт-18 22:53 (спустя 3 дня, ред. 12-Окт-18 22:53)

[Цитировать] 

Добавлены 3-4 серии.
Добавлены 5-6 серии.
Добавлены 7-8 серии.
[Профиль]  [ЛС] 

ren1686

Стаж: 7 лет 7 месяцев

Сообщений: 328


ren1686 · 13-Окт-18 06:08 (спустя 7 часов)

[Цитировать] 

Жене на день рожденья благодарность за раздачу...
[Профиль]  [ЛС] 
 
Ответить
Loading...
Error