Адрес РуТрекера для пользователей РФ - 11.MainTracker.org

Расскажи друзьям:  

Впереди день / Серии: 1-8 из 8 (Евгений Семенов) [2018, драма, мелодрама, HDTVRip]

Страницы:  1

Ответить
Автор
Сообщение

Pigy

RG Русские сериалы

Стаж: 10 лет 1 месяц

Сообщений: 3788

Pigy · 09-Окт-18 13:42 (2 месяца 8 дней назад, ред. 12-Окт-18 22:52)

Впереди день
Год выпуска: 2018
Производство: Кинокомпания "Русское"
Жанр: драма, мелодрама
Продолжительность: ~00:50:00 серия
Субтитры: нет
Режиссёр: Евгений Семенов
В ролях: Екатерина Редникова, Ирина Горячева, Мария Куликова, Сергей Горобченко, Майя Горбань, Александра Тулинова, Яна Гурьянова, Михаил Пшеничный, Александр Никитин, Александр Асташёнок, Виталий Егоров, Денис Старков, Евгений Березовский, Севастьян Бугаев

Описание: Лихие 90-е. В центре сюжета три женщины — подруги, жены «новых русских» Нина и Лена и Мила, домработница Нины. По странному совпадению всем трем скоро рожать. Как выясняется, от Кирилла беременна не только его жена Нина, но и Мила. Женщины встречаются в ресторане, чтобы выяснить отношения и разобраться в сложившейся ситуации. Внезапно вспыхнувшая бандитская разборка становится причиной неожиданного поворота. У женщин начинаются роды… Проходит 17 лет. Их дочки — Ира, Оля и Маша, которые родились в один день, — лучшие подруги. Они собираются вместе, чтобы отметить общий день рождения. Но веселье омрачает появление незваного гостя….
Реклама: Нет.
Кинопоиск
Все раздачи сериала
Sample
Качество: HDTVRip
Формат: AVI
Видео кодек: XviD
Аудио кодек: AC3
Видео: 720x400 (1.80:1), 25 fps, XviD build 73 ~1600 kbps avg, 0.222 bit/pixel
Аудио: 48.0 kHz, AC3 Dolby Digital, 2/0 (L,R) ch, ~ 192 kbps
Внимание! Раздача ведётся путём добавления новых серий
Раздача ведётся путём добавления новых серий, при каждом добавлении создаётся новый торрент. Чтобы начать докачку новой серии, пользователям необходимо сделать следующее:
- Остановить скачивание.
- Удалить старый торрент у себя из клиента (старые серии удалять не надо).
- Скачать новый торрент и запустить его у себя в клиенте вместо старого, при этом указать клиенту путь в старую папку куда и должно происходить скачивание новых серий.
Ваш клиент при этом должен произвести хеширование (проверку) старой папки (если не производит сам - помогите ему сделать это), и будет докачивать только те серии которых у вас ещё нет. Старые серии при этом не удаляются, а продолжают раздаваться!
Если вы уже удалили старые серии, то предотвратить повторную закачку старых серий можно, отжав галочку в соответствующих местах при запуске нового торрента. По возможности, желательно не удалять старые серии как можно дольше, чтобы релизер не столько продолжал раздавать старые серии, а смог сконцентрироваться на новых.
MI
General
Complete name : D:\Впереди день 2018 HDTVRip\Впереди день s01e01 HDTVRip.avi
Format : AVI
Format/Info : Audio Video Interleave
File size : 647 MiB
Duration : 50 min 17 s
Overall bit rate : 1 799 kb/s
Writing application : VirtualDubMod 1.5.10.3 | www.virtualdub-fr.org || (build 2550/release)
Writing library : VirtualDubMod build 2550/release
Video
ID : 0
Format : MPEG-4 Visual
Format profile : Advanced [email protected]
Format settings : BVOP1
Format settings, BVOP : 1
Format settings, QPel : No
Format settings, GMC : No warppoints
Format settings, Matrix : Default (MPEG)
Codec ID : XVID
Codec ID/Hint : XviD
Duration : 50 min 17 s
Bit rate : 1 597 kb/s
Width : 720 pixels
Height : 400 pixels
Display aspect ratio : 16:9
Frame rate : 25.000 FPS
Color space : YUV
Chroma subsampling : 4:2:0
Bit depth : 8 bits
Scan type : Progressive
Compression mode : Lossy
Bits/(Pixel*Frame) : 0.222
Stream size : 574 MiB (89%)
Writing library : XviD 73
Audio
ID : 1
Format : AC-3
Format/Info : Audio Coding 3
Codec ID : 2000
Duration : 50 min 17 s
Bit rate mode : Constant
Bit rate : 192 kb/s
Channel(s) : 2 channels
Channel positions : Front: L R
Sampling rate : 48.0 kHz
Frame rate : 31.250 FPS (1536 SPF)
Bit depth : 16 bits
Compression mode : Lossy
Stream size : 69.1 MiB (11%)
Alignment : Split accross interleaves
Interleave, duration : 40 ms (1.00 video frame)
Interleave, preload duratio : 500 ms
Service kind : Complete Main
Скриншоты
Download
Чтобы скачать .torrent файл необходима регистрация
Сайт не распространяет и не хранит электронные версии произведений, а лишь предоставляет доступ к создаваемому пользователями каталогу ссылок на торрент-файлы, которые содержат только списки хеш-сумм
[Профиль]  [ЛС] 
 

Pigy

RG Русские сериалы

Стаж: 10 лет 1 месяц

Сообщений: 3788

Pigy · 12-Окт-18 22:53 (спустя 3 дня, ред. 12-Окт-18 22:53)

[Цитировать] 

+3-4 серии.
Добавлены 5-6 серии.
Добавлены 7-8 серии.
[Профиль]  [ЛС] 

gudvil

Стаж: 5 лет 4 месяца

Сообщений: 1


gudvil · 14-Окт-18 12:11 (спустя 1 день 13 часов)

[Цитировать] 

Pigy писал(а):
76113096+3-4 серии.
Добавлены 5-6 серии.
Добавлены 7-8 серии.
кривой сериал, не показывает со второй серии
[Профиль]  [ЛС] 
 
Ответить
Loading...
Error