Фитнес / Серии: 1-20 из 20 (Антон Маслов) [2018, комедия, WEBRip 720p]

Страницы:  1

Ответить
Автор
Сообщение

Wentworth_Miller

Помощник модератора

Стаж: 9 лет 8 месяцев

Сообщений: 5550

Wentworth_Miller · 14-Окт-18 23:14 (1 месяц 5 дней назад, ред. 09-Ноя-18 17:30)

Фитнес
Год выпуска: 2018
Производство: Yellow, Black and White
Жанр: комедия
Продолжительность: ~ 00:24:00
Субтитры: нет
Режиссёр: Антон Маслов
В ролях: Софья Зайка, Михаил Трухин, Татьяна Храмова, Роман Курцын, Алексей Демидов, Борис Дергачев, Марианна Шульц, Ольга Баранова, Анна Лауренская, Татьяна Сомова, Мария Малиновская, Александр Семчев, Данила Якушев, Евгений Михеев, Дмитрий Чеботарёв, Елизавета Мартинес, Ирина Бякова, Андрей Пынзару
Описание: «Быстрее, выше, сильнее»… В мире Аси такому девизу не место. Так же, как и комплексам из-за лишнего веса. Тем более, есть дела поважнее — подготовка к свадьбе в самом разгаре. Беспечный мир Аси рушится в одну секунду: девушка узнает, что любимого давно не устраивает ее фигура. А лучшие подруги не стесняются злословить о пышных формах за ее спиной. Восстанавливать веру в себя Ася отправляется в спортклуб. Вот только тренировки и программа по снижению веса оказываются не по карману начинающей спортсменке. Выход один — стать сотрудником фитнеса и заниматься бесплатно. Так у Аси появляется новая работа, знакомства и, главное, стимул доказать подругам, бывшему и всему миру, что «невозможное возможно».
Реклама: Нет
Сэмпл: http://multi-up.com/1211880
Качество: WEBRip 720p - forunzak
Формат: MKV
Видео кодек: H.264
Аудио кодек: AC3
Видео: MPEG-4 AVC, ~ 2600 Кбит/с, 1280x720, 25,000 кадров/сек, 0.113 bit/pixel
Аудио: 48.0 kHz, AC3 Dolby Digital, 2/0 (L,R) ch, ~ 192 kbps
MI
Общее
Уникальный идентификатор : 175381822561114102207963913524876144346 (0x83F14F74E0C0C5A29259E99F140BEEDA)
Полное имя : E:\Fitnes.2018.WEB-DL.(720p).Getty\Fitnes.e01.2018.WEB-DL.(720p).Getty.mkv
Формат : Matroska
Версия формата : Version 4
Размер файла : 526 Мбайт
Продолжительность : 26 м. 34 с.
Режим общего битрейта : Постоянный
Общий поток : 2768 Кбит/сек
Название фильма : Fitnes.e01.2018.WEB-DL.(720p).Getty
Дата кодирования : UTC 2018-10-07 22:49:11
Программа кодирования : mkvmerge v7.8.0 ('River Man') 32bit built on Mar 27 2015 16:18:02
Библиотека кодирования : libebml v1.3.1 + libmatroska v1.4.2
Видео
Идентификатор : 1
Формат : AVC
Формат/Информация : Advanced Video Codec
Профиль формата : [email protected]
Настройки формата : 4 Ref Frames
Параметр CABAC формата : Нет
Параметр RefFrames формата : 4 кадра
Идентификатор кодека : V_MPEG4/ISO/AVC
Продолжительность : 26 м. 34 с.
Вид битрейта : Постоянный
Битрейт : 2600 Кбит/сек
Ширина : 1280 пикселей
Высота : 720 пикселей
Соотношение сторон : 16:9
Режим частоты кадров : Постоянный
Частота кадров : 25,000 кадров/сек
Стандарт вещания : PAL
Цветовое пространство : YUV
Субдискретизация насыщенности : 4:2:0
Битовая глубина : 8 бит
Тип развёртки : Прогрессивная
Бит/(Пиксели*Кадры) : 0.113
Размер потока : 489 Мбайт (93%)
Default : Да
Forced : Нет
Цветовой диапазон : Limited
Основные цвета : BT.709
Характеристики трансфера : BT.709
Коэффициенты матрицы : BT.709
Аудио
Идентификатор : 2
Формат : AC-3
Формат/Информация : Audio Coding 3
Коммерческое название : Dolby Digital
Идентификатор кодека : A_AC3
Продолжительность : 26 м. 34 с.
Вид битрейта : Постоянный
Битрейт : 192 Кбит/сек
Каналы : 2 канала
Channel layout : L R
Частота : 48,0 КГц
Частота кадров : 31,250 кадров/сек (1536 SPF)
Битовая глубина : 16 бит
Метод сжатия : С потерями
Размер потока : 36,5 Мбайт (7%)
ServiceKind/String : Complete Main
Default : Да
Forced : Нет

Скриншоты

Предыдущие и альтернативные раздачи
Download
Чтобы скачать .torrent файл необходима регистрация
Сайт не распространяет и не хранит электронные версии произведений, а лишь предоставляет доступ к создаваемому пользователями каталогу ссылок на торрент-файлы, которые содержат только списки хеш-сумм
[Профиль]  [ЛС] 
 

Wentworth_Miller

Помощник модератора

Стаж: 9 лет 8 месяцев

Сообщений: 5550

Wentworth_Miller · 16-Окт-18 00:12 (спустя 1 день, ред. 16-Окт-18 00:12)

[Цитировать] 

+6
+7
[Профиль]  [ЛС] 

miss.dzhanga

Стаж: 5 лет 6 месяцев

Сообщений: 31


miss.dzhanga · 25-Окт-18 11:50 (спустя 9 дней)

[Цитировать] 

Отличный веселенький сериал. Спасибо раздающему! Симпатичная позитивная девчоночка. Посмотреть-отдохнуть в самый раз!
[Профиль]  [ЛС] 

жук74

Стаж: 8 лет 2 месяца

Сообщений: 40


жук74 · 09-Ноя-18 08:46 (спустя 14 дней)

[Цитировать] 

Wentworth_Miller
20 серий в сезоне. Лежат 4 часа на руторе от Getty, как у Вас.
[Профиль]  [ЛС] 
 
Ответить
Loading...
Error