Ивановы-Ивановы / Сезон: 3 / Серии: 1-13 из 20 (Андрей Элинсон) [2018, комедия, WEBRip]

Страницы:  1

Ответить
Автор
Сообщение

Pigy

RG Русские сериалы

Стаж: 10 лет

Сообщений: 3446

Pigy · 29-Окт-18 20:08 (17 дней назад, ред. 15-Ноя-18 18:14)

Ивановы-Ивановы
Год выпуска: 2018
Производство: PICK UP FILM
Жанр: комедия
Продолжительность: ~00:24:00 серия
Субтитры: нет
Режиссёр: Андрей Элинсон
В ролях: Сергей Бурунов, Александра Флоринская, Михаил Трухин, Анна Уколова, Семён Трескунов, Алексей Лукин, Юрий Ицков, Елена Муравьёва, Грант Тохатян, Виктория Маслова, Василина Юсковец, Игорь Хрипунов, Александр Обласов, Валерий Панков, Артём Федотов, Кристина Каширина, Мария Иващенко, Валерий Новиков, Игорь Климов, Гарик Айвазов, Николай Козак, Натали Старынкевич, Юлия Чиплиева, Александр Марушев, Андрей Шишков, Денис Синявский, Александр Половцев, Сергей Беляев, Юлия Подозёрова, Слава Степанян, Андрей Арзяев, Павел Ремезов, Игорь Кистол, Виталий Ходин, Игорь Кулачко
Описание: Лёша Иванов становится главой семьи, когда выкупает фамильный особняк. Это не устраивает Антона, который этот особняк построил. В борьбе за «престол» нет запрещенных средств, и пусть придётся стрелять из лука, взрывать вертолёт и оказаться в другой эпохе.

Реклама: Нет.

Все раздачи сериала
Sample
Качество: WEBRip - Files-x
Формат: AVI
Видео кодек: XviD
Аудио кодек: AC3
Видео: 720x400 (1.80:1), 25 fps, XviD build 73 ~1600 kbps avg, 0.222 bit/pixel
Аудио: 48.0 kHz, AC3 Dolby Digital, 2/0 (L,R) ch, ~ 192 kbps
Внимание! Раздача ведётся путём добавления новых серий
Раздача ведётся путём добавления новых серий, при каждом добавлении создаётся новый торрент. Чтобы начать докачку новой серии, пользователям необходимо сделать следующее:
- Остановить скачивание.
- Удалить старый торрент у себя из клиента (старые серии удалять не надо).
- Скачать новый торрент и запустить его у себя в клиенте вместо старого, при этом указать клиенту путь в старую папку куда и должно происходить скачивание новых серий.
Ваш клиент при этом должен произвести хеширование (проверку) старой папки (если не производит сам - помогите ему сделать это), и будет докачивать только те серии которых у вас ещё нет. Старые серии при этом не удаляются, а продолжают раздаваться!
Если вы уже удалили старые серии, то предотвратить повторную закачку старых серий можно, отжав галочку в соответствующих местах при запуске нового торрента. По возможности, желательно не удалять старые серии как можно дольше, чтобы релизер не столько продолжал раздавать старые серии, а смог сконцентрироваться на новых.
MI
General
Complete name : D:\Ivanovy.Ivanovy.03.2018.WEB-DLRip.Files-x.Files-x\01.Ivanovy.Ivanovy.03.2018.WEB-DLRip.Files-x.avi
Format : AVI
Format/Info : Audio Video Interleave
File size : 320 MiB
Duration : 24 min 48 s
Overall bit rate : 1 802 kb/s
Writing application : VirtualDubMod 1.5.10.3 | www.virtualdub-fr.org || (build 2550/release)
Writing library : VirtualDubMod build 2550/release
Video
ID : 0
Format : MPEG-4 Visual
Format profile : Advanced [email protected]
Format settings : BVOP1 / QPel
Format settings, BVOP : 1
Format settings, QPel : Yes
Format settings, GMC : No warppoints
Format settings, Matrix : Default (MPEG)
Codec ID : XVID
Codec ID/Hint : XviD
Duration : 24 min 48 s
Bit rate : 1 600 kb/s
Width : 720 pixels
Height : 400 pixels
Display aspect ratio : 16:9
Frame rate : 25.000 FPS
Color space : YUV
Chroma subsampling : 4:2:0
Bit depth : 8 bits
Scan type : Progressive
Compression mode : Lossy
Bits/(Pixel*Frame) : 0.222
Stream size : 284 MiB (89%)
Writing library : XviD 73
Audio
ID : 1
Format : AC-3
Format/Info : Audio Coding 3
Codec ID : 2000
Duration : 24 min 48 s
Bit rate mode : Constant
Bit rate : 192 kb/s
Channel(s) : 2 channels
Channel positions : Front: L R
Sampling rate : 48.0 kHz
Frame rate : 31.250 FPS (1536 SPF)
Bit depth : 16 bits
Compression mode : Lossy
Stream size : 34.1 MiB (11%)
Alignment : Split accross interleaves
Interleave, duration : 40 ms (1.00 video frame)
Interleave, preload duratio : 500 ms
Service kind : Complete Main
Скриншоты
Download
Чтобы скачать .torrent файл необходима регистрация
Сайт не распространяет и не хранит электронные версии произведений, а лишь предоставляет доступ к создаваемому пользователями каталогу ссылок на торрент-файлы, которые содержат только списки хеш-сумм
[Профиль]  [ЛС] 
 

german4ik_89

Стаж: 6 лет 9 месяцев

Сообщений: 572

german4ik_89 · 30-Окт-18 19:35 (спустя 23 часа)

[Цитировать] 

огонь, сегодня обновление будет?)
[Профиль]  [ЛС] 

Pigy

RG Русские сериалы

Стаж: 10 лет

Сообщений: 3446

Pigy · 01-Ноя-18 19:31 (спустя 1 день 23 часа, ред. 01-Ноя-18 19:31)

[Цитировать] 

Добавлена 3 серия.
Добавлена 4 серия.
Добавлена 5 серия.
[Профиль]  [ЛС] 

LeonidSa

Стаж: 5 лет 7 месяцев

Сообщений: 1


LeonidSa · 04-Ноя-18 20:40 (спустя 3 дня)

[Цитировать] 

Супер Спасибо большое, когда следующие серии будут?
[Профиль]  [ЛС] 

german4ik_89

Стаж: 6 лет 9 месяцев

Сообщений: 572

german4ik_89 · 05-Ноя-18 01:22 (спустя 4 часа)

[Цитировать] 

LeonidSa
вообще с понедельника по четверг серии выходят, ну или по пятницу, смотря когда релизёр обновит раздачу
[Профиль]  [ЛС] 

Pigy

RG Русские сериалы

Стаж: 10 лет

Сообщений: 3446

Pigy · 08-Ноя-18 22:00 (спустя 3 дня, ред. 08-Ноя-18 22:00)

[Цитировать] 

Добавлены 6-7 серии.
Добавлена 8 серия.
Добавлена 9 серия.
[Профиль]  [ЛС] 

Pigy

RG Русские сериалы

Стаж: 10 лет

Сообщений: 3446

Pigy · 12-Ноя-18 18:00 (спустя 3 дня)

[Цитировать] 

Добавлена 10 серия.
[Профиль]  [ЛС] 

Сергей14742011

Стаж: 7 лет

Сообщений: 2


Сергей14742011 · 12-Ноя-18 22:08 (спустя 4 часа)

[Цитировать] 

спасибо
[Профиль]  [ЛС] 

Pigy

RG Русские сериалы

Стаж: 10 лет

Сообщений: 3446

Pigy · 13-Ноя-18 17:24 (спустя 19 часов)

[Цитировать] 

Добавлена 11 серия.
[Профиль]  [ЛС] 

german4ik_89

Стаж: 6 лет 9 месяцев

Сообщений: 572

german4ik_89 · 13-Ноя-18 17:39 (спустя 15 мин.)

[Цитировать] 

Pigy
оперативно)
[Профиль]  [ЛС] 

Pigy

RG Русские сериалы

Стаж: 10 лет

Сообщений: 3446

Pigy · 14-Ноя-18 18:45 (спустя 1 день 1 час)

[Цитировать] 

Добавлена 12 серия.
[Профиль]  [ЛС] 

borman201

Стаж: 6 лет 6 месяцев

Сообщений: 101


borman201 · 15-Ноя-18 14:16 (спустя 19 часов)

[Цитировать] 

А где 2-й сезон?
[Профиль]  [ЛС] 

Pigy

RG Русские сериалы

Стаж: 10 лет

Сообщений: 3446

Pigy · 15-Ноя-18 18:15 (спустя 3 часа, ред. 15-Ноя-18 18:15)

[Цитировать] 

borman201 писал(а):
76323472А где 2-й сезон?
Пройдите по ссылке Все раздачи сериала в оформлении этой раздачи, там все сезоны.
Добавлена 13 серия.
[Профиль]  [ЛС] 
 
Ответить
Loading...
Error