Обычная женщина / Серии: 1-9 из 9 (Борис Хлебников) [2018, драма, криминал, WEBRip 1080p]

Страницы:  1

Ответить
Автор
Сообщение

Pigy

RG Русские сериалы

Стаж: 10 лет

Сообщений: 3446

Pigy · 30-Окт-18 05:23 (16 дней назад, ред. 08-Ноя-18 22:49)

Обычная женщина
Год выпуска: 2018
Производство: 1-2-3 Production, Look Film
Жанр: драма, криминал
Продолжительность: ~00:42:00 серия
Субтитры: нет
Режиссёр: Борис Хлебников
В ролях: Анна Михалкова, Евгений Гришковец, Татьяна Догилева, Аглая Тарасова, Александра Бортич, Александр Сударев, Стася Милославская, Анастасия Шаповал, Сергей Маркелов, Юлия Мельникова, Мария Андреева, Елизавета Кононова, Тамара Акулова, Николай Шрайбер, Валентина Лукащук, Семён Шомин, Сергей Уманов
Описание: У 39-летней Марины обычный маленький бизнес — цветочный магазинчик, обычная семья — муж работает хирургом, дочери учатся: младшая — в частной школе, старшая — в институте, и вполне обычные заботы. Окружающим её жизнь кажется счастливой, но за этим благополучным фасадом скрываются невероятные семейные тайны. Это история самой обычной женщины, живущей очень необычной жизнью.

Реклама: Нет.
Кинопоиск
Все раздачи сериала
Sample
Качество: WEBRip 1080p - Getty
Формат: MKV
Видео кодек: H.264
Аудио кодек: AC3
Видео: MPEG4 AVC Video, H264, 16:9, 1920x1080, 25 fps, ~5000 kbps, 0.096 bit/pixel
Аудио: AC3 Dolby Digital, 48.0 kHz, 2/0 (L,R) ch, 192 kbps
Внимание! Раздача ведётся путём добавления новых серий
Раздача ведётся путём добавления новых серий, при каждом добавлении создаётся новый торрент. Чтобы начать докачку новой серии, пользователям необходимо сделать следующее:
- Остановить скачивание.
- Удалить старый торрент у себя из клиента (старые серии удалять не надо).
- Скачать новый торрент и запустить его у себя в клиенте вместо старого, при этом указать клиенту путь в старую папку куда и должно происходить скачивание новых серий.
Ваш клиент при этом должен произвести хеширование (проверку) старой папки (если не производит сам - помогите ему сделать это), и будет докачивать только те серии которых у вас ещё нет. Старые серии при этом не удаляются, а продолжают раздаваться!
Если вы уже удалили старые серии, то предотвратить повторную закачку старых серий можно, отжав галочку в соответствующих местах при запуске нового торрента. По возможности, желательно не удалять старые серии как можно дольше, чтобы релизер не столько продолжал раздавать старые серии, а смог сконцентрироваться на новых.
MI
General
Unique ID : 238858461760991167915453615948654658421 (0xB3B27765D4E29C9A987A616D0FCF4375)
Complete name : D:\Obychnaya.zhenschina.2018.WEB-DL.(1080p).Getty\Obychnaya.zhenschina.e01.2018.WEB-DL.(1080p).Getty.mkv
Format : Matroska
Format version : Version 4 / Version 2
File size : 1.52 GiB
Duration : 42 min 6 s
Overall bit rate mode : Constant
Overall bit rate : 5 166 kb/s
Movie name : Obychnaya.zhenschina.e01.2018.WEB-DL.(1080p).Getty
Encoded date : UTC 2018-10-29 15:38:43
Writing application : mkvmerge v7.8.0 ('River Man') 32bit built on Mar 27 2015 16:18:02
Writing library : libebml v1.3.1 + libmatroska v1.4.2
Video
ID : 1
Format : AVC
Format/Info : Advanced Video Codec
Format profile : [email protected]
Format settings : 4 Ref Frames
Format settings, CABAC : No
Format settings, ReFrames : 4 frames
Codec ID : V_MPEG4/ISO/AVC
Duration : 42 min 6 s
Bit rate mode : Constant
Bit rate : 5 000 kb/s
Width : 1 920 pixels
Height : 1 080 pixels
Display aspect ratio : 16:9
Frame rate mode : Constant
Frame rate : 25.000 FPS
Standard : PAL
Color space : YUV
Chroma subsampling : 4:2:0
Bit depth : 8 bits
Scan type : Progressive
Bits/(Pixel*Frame) : 0.096
Stream size : 1.46 GiB (96%)
Default : Yes
Forced : No
Color range : Limited
Color primaries : BT.709
Transfer characteristics : BT.709
Matrix coefficients : BT.709
Audio
ID : 2
Format : AC-3
Format/Info : Audio Coding 3
Codec ID : A_AC3
Duration : 42 min 6 s
Bit rate mode : Constant
Bit rate : 192 kb/s
Channel(s) : 2 channels
Channel positions : Front: L R
Sampling rate : 48.0 kHz
Frame rate : 31.250 FPS (1536 SPF)
Bit depth : 16 bits
Compression mode : Lossy
Stream size : 57.8 MiB (4%)
Service kind : Complete Main
Default : Yes
Forced : No
Скриншоты
Download
Чтобы скачать .torrent файл необходима регистрация
Сайт не распространяет и не хранит электронные версии произведений, а лишь предоставляет доступ к создаваемому пользователями каталогу ссылок на торрент-файлы, которые содержат только списки хеш-сумм
[Профиль]  [ЛС] 
 

Pigy

RG Русские сериалы

Стаж: 10 лет

Сообщений: 3446

Pigy · 01-Ноя-18 23:40 (спустя 2 дня 18 часов, ред. 01-Ноя-18 23:40)

[Цитировать] 

Добавлена 2 серия.
Добавлена 3 серия.
Добавлена 4 серия.
[Профиль]  [ЛС] 

forumer

Стаж: 10 лет 9 месяцев

Сообщений: 33


forumer · 01-Ноя-18 23:48 (спустя 8 мин.)

[Цитировать] 

Спасибо!
[Профиль]  [ЛС] 

Pigy

RG Русские сериалы

Стаж: 10 лет

Сообщений: 3446

Pigy · 03-Ноя-18 20:56 (спустя 1 день 21 час)

[Цитировать] 

Если кому интересно статья на Кинопоиске про сериал - https://www.kinopoisk.ru/article/3283574/
[Профиль]  [ЛС] 

maxbook

Стаж: 10 лет 6 месяцев

Сообщений: 42


maxbook · 04-Ноя-18 20:05 (спустя 23 часа)

[Цитировать] 

Очень крутой сериал! Вроде ничего подобного по качеству от роскинопроизводства не встреча. Раздающему спасибо!
[Профиль]  [ЛС] 

_t0rnad0_

Стаж: 9 лет 10 месяцев

Сообщений: 5


_t0rnad0_ · 05-Ноя-18 16:20 (спустя 20 часов)

[Цитировать] 

Весьма неожиданно для российского кинопроизводства — но работа действительно качественная. Актёры интересные, персонажи классные, события развиваются быстро и без жевания соплей ради растягивания хронометража. Да и сценарий не подкачал. К тому же всё, что происходит в сериале, при кажущейся невероятности — очень жизненно в деталях.
Крайне неожиданная работа авторов, короче.
[Профиль]  [ЛС] 

Pigy

RG Русские сериалы

Стаж: 10 лет

Сообщений: 3446

Pigy · 07-Ноя-18 23:16 (спустя 2 дня 6 часов, ред. 07-Ноя-18 23:16)

[Цитировать] 

Добавлены 5-6 серии.
Добавлена 7 серия.
Добавлена 8 серия.
[Профиль]  [ЛС] 

SollyParker

Стаж: 10 лет

Сообщений: 39


SollyParker · 08-Ноя-18 21:39 (спустя 22 часа)

[Цитировать] 

Спасибо
[Профиль]  [ЛС] 

Pigy

RG Русские сериалы

Стаж: 10 лет

Сообщений: 3446

Pigy · 08-Ноя-18 22:49 (спустя 1 час 10 мин.)

[Цитировать] 

Добавлена 9 серия.
[Профиль]  [ЛС] 

iLightman

Стаж: 9 лет 11 месяцев

Сообщений: 9

iLightman · 08-Ноя-18 22:53 (спустя 3 мин.)

[Цитировать] 

Спасибо!
[Профиль]  [ЛС] 

minimovie

Стаж: 12 лет 7 месяцев

Сообщений: 13


minimovie · 09-Ноя-18 02:29 (спустя 3 часа)

[Цитировать] 

Спасибо!
[Профиль]  [ЛС] 

GALINA81

Стаж: 3 года 8 месяцев

Сообщений: 697

GALINA81 · 10-Ноя-18 20:57 (спустя 1 день 18 часов)

[Цитировать] 

Очень хороший сериал, который держит постоянно не в напряжении, а в интересе. Большое спасибо.
[Профиль]  [ЛС] 
 
Ответить
Loading...
Error