Ольга / Сезон: 3 / Серии: 1-8 из 16 (Алексей Нужный, Игорь Волошин) [2018, Комедия, WEBRip]

Страницы:  1

Ответить
Автор
Сообщение

Сибиряк777

Top Seed 05* 640r

Стаж: 10 лет 1 месяц

Сообщений: 2964

Сибиряк777 · 06-Ноя-18 16:54 (9 дней назад, ред. 15-Ноя-18 22:52)

Ольга

Год выпуска: 2018
Производство: Good Story Media
Жанр: Комедия
Продолжительность: 00:22:54
Субтитры: нет
Режиссёр: Алексей Нужный, Игорь Волошин
В ролях: Яна Троянова, Василий Кортуков, Алина Алексеева, Ксения Суркова, Сергей Романович, Максим Костромыкин, Гоша Куценко, Фархад Гусейнов, Борис Дергачев, Александр Шам, Павел Майков
Описание: Ольга до сих пор находится в нокдауне. Кто бы мог подумать, некогда добрый и обходительный водитель катафалка Гриша дал от ворот поворот. Причем в грубой форме: «Ты хорошая, но я тебя не люблю и с тобой не буду». Как жить после такого? Рецепт от Ольги всегда прост — сжать булки и идти дальше.
Разморозить сердце главной героини берется бизнесмен Володя, матрасный король на джипе — мужчина дерзкий и нахрапистый, именно такие нравятся Ольге. Почти с самого начала пара сближается настолько, что... Ольга оказывается перед Володей без лифчика, а он перед ней — полностью голым. На снегу! Водитель катафалка или хозяин внедорожника — перед таким выбором Ольга еще не стояла.
Между прочим, Володя — подгон от любящей сестры Лены. Она родила маленького Пушкина от юного Пушкина. И подкинула Ольге не только хлопот с малышом, но и кандидата на место Гриши.
Аня начинает повторять судьбу Ольги и очень рано становится матерью-одиночкой, ведь гопник Андрюха улетел в Минск, не выдержав груза ответственности. Вокруг обескураженной Ани начинают виться другие неблагонадежные парни. Девочка топит горе в алкоголе. И все это «счастье» тоже ложится на привыкшие к нагрузкам плечи Ольги. Куда деться от проблем?
Сэмпл: http://multi-up.com/1214086
Качество: WEBRip / 25Kuzmich
Формат: AVI
Видео кодек: XviD
Аудио кодек: MP3
Видео: 720x400 (16:9), 25.000 fps, XviD, 1650 Kbps, 0.22 bit/pixel
Аудио: 48 kHz, MP3, 2/0 (L,R) ch, 192.00 kbps
Реклама: Нет
MI
General
Complete name : Downloads\Olga.S03.WEB-DLRip.25Kuzmich\Olga.s03.e01.WEB-DLRip.25Kuzmich.avi
Format : AVI
Format/Info : Audio Video Interleave
File size : 298 MiB
Duration : 22mn 32s
Overall bit rate : 1 852 Kbps
Writing application : VirtualDubMod 1.5.10.3 | www.virtualdub-fr.org || (build 2550/release)
Writing library : VirtualDubMod build 2550/release
Video #0
ID : 0
Format : MPEG-4 Visual
Format profile : Advanced [email protected]
Format settings, BVOP : 1
Format settings, QPel : No
Format settings, GMC : No warppoints
Format settings, Matrix : Default (MPEG)
Codec ID : XVID
Codec ID/Hint : XviD
Duration : 22mn 32s
Bit rate : 1 650 Kbps
Width : 720 pixels
Height : 400 pixels
Display aspect ratio : 16:9
Frame rate : 25.000 fps
Color space : YUV
Chroma subsampling : 4:2:0
Bit depth : 8 bits
Scan type : Progressive
Compression mode : Lossy
Bits/(Pixel*Frame) : 0.229
Stream size : 266 MiB (89%)
Writing library : XviD 1.2.1 (UTC 2008-12-04)
Audio #1
ID : 1
Format : AC-3
Format/Info : Audio Coding 3
Mode extension : CM (complete main)
Format settings, Endianness : Big
Codec ID : 2000
Duration : 22mn 32s
Bit rate mode : Constant
Bit rate : 192 Kbps
Channel(s) : 2 channels
Channel positions : Front: L R
Sampling rate : 48.0 KHz
Bit depth : 16 bits
Compression mode : Lossy
Stream size : 30.9 MiB (10%)
Alignment : Split accross interleaves
Interleave, duration : 40 ms (1.00 video frame)
Interleave, preload duration : 500 ms
Скриншоты
Предыдущие и альтернативные раздачи
Download
Чтобы скачать .torrent файл необходима регистрация
Сайт не распространяет и не хранит электронные версии произведений, а лишь предоставляет доступ к создаваемому пользователями каталогу ссылок на торрент-файлы, которые содержат только списки хеш-сумм
[Профиль]  [ЛС] 
 

profik1976

Стаж: 9 лет 6 месяцев

Сообщений: 149


profik1976 · 06-Ноя-18 17:40 (спустя 46 мин.)

[Цитировать] 

класс. спасибо.
[Профиль]  [ЛС] 

albenads

Стаж: 8 лет 6 месяцев

Сообщений: 3


albenads · 06-Ноя-18 18:04 (спустя 24 мин.)

[Цитировать] 

смотрю. спасибо большое.
[Профиль]  [ЛС] 

bot · 06-Ноя-18 18:25 (спустя 21 мин.)

Тема была перенесена из форума Русские сериалы в форум Ольга / Физрук
Сударыня
 

FEELID

Стаж: 6 лет 11 месяцев

Сообщений: 32


FEELID · 06-Ноя-18 19:49 (спустя 1 час 45 мин.)

[Цитировать] 

где 2 серия ?
[Профиль]  [ЛС] 

2525dima2525

Стаж: 6 лет 8 месяцев

Сообщений: 55

2525dima2525 · 06-Ноя-18 19:50 (спустя 28 сек.)

[Цитировать] 

Ссылка на Предыдущие и альтернативные раздачи,не корректная! Ведет в раздел всех русских сериалов.
[Профиль]  [ЛС] 

AJIAKA3AH

Стаж: 9 лет 6 месяцев

Сообщений: 295

AJIAKA3AH · 06-Ноя-18 20:03 (спустя 13 мин.)

[Цитировать] 

Спасибо за раздачу.
[Профиль]  [ЛС] 

Сибиряк777

Top Seed 05* 640r

Стаж: 10 лет 1 месяц

Сообщений: 2964

Сибиряк777 · 08-Ноя-18 22:08 (спустя 2 дня 2 часа)

[Цитировать] 

+4
[Профиль]  [ЛС] 

lukyan-max

Стаж: 6 лет 11 месяцев

Сообщений: 7


lukyan-max · 09-Ноя-18 18:30 (спустя 20 часов, ред. 09-Ноя-18 18:30)

[Цитировать] 

Фразу в описании Гриша говорил не Ольге,а своей невесте.Ольге он как раз говорил о любви.
[Профиль]  [ЛС] 

Сибиряк777

Top Seed 05* 640r

Стаж: 10 лет 1 месяц

Сообщений: 2964

Сибиряк777 · 13-Ноя-18 20:45 (спустя 4 дня)

[Цитировать] 

+6
[Профиль]  [ЛС] 

trhtjhrtejkrhtruiehtrekjt

Стаж: 1 год 11 месяцев

Сообщений: 14


trhtjhrtejkrhtruiehtrekjt · 14-Ноя-18 22:23 (спустя 1 день 1 час)

[Цитировать] 

где +7?
[Профиль]  [ЛС] 

Сибиряк777

Top Seed 05* 640r

Стаж: 10 лет 1 месяц

Сообщений: 2964

Сибиряк777 · 15-Ноя-18 22:53 (спустя 1 день)

[Цитировать] 

+8
[Профиль]  [ЛС] 
 
Ответить
Loading...
Error