Неуловимые / Серии: 1-8 из 8 (Владимир Виноградов) [2018, комедия, приключения, WEBRip 1080p]

Страницы:  1

Ответить
Автор
Сообщение

Pigy

RG Русские сериалы

Стаж: 10 лет

Сообщений: 3499

Pigy · 07-Ноя-18 00:17 (13 дней назад, ред. 10-Ноя-18 18:41)

Неуловимые
Год выпуска: 2018
Производство: Киностудия КИТ, кинокомпания «Тим Филмз»
Жанр: комедия, приключения
Продолжительность: ~00:48:00 серия
Субтитры: нет
Режиссёр: Владимир Виноградов
В ролях: Оксана Фандера, Александр Лыков, Сергей Газаров, Юрий Стоянов, Евгений Березин, Таисия Шипилова, Николай Сороканов, Максим Емельянов, Владислав Тирон, Александр Фисенко, Пьер Бурель, Денис Свистун, Сергей Шаталов
Описание: Все газеты мира облетает весть, что Давид Ойстрах отыграет концерт на уникальном инструменте в родной Одессе! Из Москвы скрипку перевозят в специальном вагоне поезда. Два легендарных черноморских вора Лаврик и Кобзарь решаются на «ограбление века»: они задумали похитить подарок королевы. Чтобы провернуть задуманное, опытные мастера собирают целую команду из молодых умельцев воровского дела. В это же время на родину после почти двадцати лет отсутствия возвращается красавица и авантюристка, некогда настоящая королева околокриминального мира — Фирочка Танцорка. Операция принимает неожиданный поворот, когда в дело вмешивается любовь.

Реклама: Нет.
Кинопоиск
Все раздачи сериала
Sample
Качество: WEBRip 1080p - Nikolspup
Формат: MKV
Видео кодек: H.264
Аудио кодек: AC3
Видео: MPEG4 AVC Video, H264, 16:9, 1920x1080, 25 fps, ~5120 kbps, 0.099 bit/pixel
Аудио: AC3 Dolby Digital, 48.0 kHz, 2/0 (L,R) ch, 192 kbps
Внимание! Раздача ведётся путём добавления новых серий
Раздача ведётся путём добавления новых серий, при каждом добавлении создаётся новый торрент. Чтобы начать докачку новой серии, пользователям необходимо сделать следующее:
- Остановить скачивание.
- Удалить старый торрент у себя из клиента (старые серии удалять не надо).
- Скачать новый торрент и запустить его у себя в клиенте вместо старого, при этом указать клиенту путь в старую папку куда и должно происходить скачивание новых серий.
Ваш клиент при этом должен произвести хеширование (проверку) старой папки (если не производит сам - помогите ему сделать это), и будет докачивать только те серии которых у вас ещё нет. Старые серии при этом не удаляются, а продолжают раздаваться!
Если вы уже удалили старые серии, то предотвратить повторную закачку старых серий можно, отжав галочку в соответствующих местах при запуске нового торрента. По возможности, желательно не удалять старые серии как можно дольше, чтобы релизер не столько продолжал раздавать старые серии, а смог сконцентрироваться на новых.
MI
General
Unique ID : 184625839353545004679878315813493083781 (0x8AE5A4AC276E3D709BC020AE0D990E85)
Complete name : D:\Neulovimye.2017.WEB-DL.(1080p).Nikolspup\Neulovimye.(03.seriya.iz.08).2017.WEB-DL.(1080p).Nikolspup.mkv
Format : Matroska
Format version : Version 4 / Version 2
File size : 1.87 GiB
Duration : 50 min 25 s
Overall bit rate : 5 315 kb/s
Encoded date : UTC 2018-11-10 09:56:47
Writing application : mkvmerge v7.8.0 ('River Man') 32bit built on Mar 27 2015 16:18:02
Writing library : libebml v1.3.1 + libmatroska v1.4.2
Video
ID : 1
Format : AVC
Format/Info : Advanced Video Codec
Format profile : [email protected]
Format settings : CABAC / 4 Ref Frames
Format settings, CABAC : Yes
Format settings, ReFrames : 4 frames
Codec ID : V_MPEG4/ISO/AVC
Duration : 50 min 25 s
Bit rate : 5 121 kb/s
Width : 1 920 pixels
Height : 1 080 pixels
Display aspect ratio : 16:9
Frame rate mode : Constant
Frame rate : 25.000 FPS
Color space : YUV
Chroma subsampling : 4:2:0
Bit depth : 8 bits
Scan type : Progressive
Bits/(Pixel*Frame) : 0.099
Stream size : 1.80 GiB (96%)
Default : Yes
Forced : No
Audio
ID : 2
Format : AC-3
Format/Info : Audio Coding 3
Codec ID : A_AC3
Duration : 50 min 25 s
Bit rate mode : Constant
Bit rate : 192 kb/s
Channel(s) : 2 channels
Channel positions : Front: L R
Sampling rate : 48.0 kHz
Frame rate : 31.250 FPS (1536 SPF)
Bit depth : 16 bits
Compression mode : Lossy
Stream size : 69.2 MiB (4%)
Language : Russian
Service kind : Complete Main
Default : Yes
Forced : No
Скриншоты
Download
Чтобы скачать .torrent файл необходима регистрация
Сайт не распространяет и не хранит электронные версии произведений, а лишь предоставляет доступ к создаваемому пользователями каталогу ссылок на торрент-файлы, которые содержат только списки хеш-сумм
[Профиль]  [ЛС] 
 

Pigy

RG Русские сериалы

Стаж: 10 лет

Сообщений: 3499

Pigy · 09-Ноя-18 11:22 (спустя 2 дня 11 часов, ред. 09-Ноя-18 11:22)

[Цитировать] 

НТВшники прикрыли доступ к вебкам, видимо борьба с пиратством продолжается, либо просто технические проблемы.
Продолжения в этом качестве пока не ожидается.


В связи с тем что WEB 1080 не ожидается, а может и вообще не будет, решил заменить раздачу на HDTV 1080p, надеюсь на понимание пользователей.
Также добавлены все доступные на данный момент серии.
[Профиль]  [ЛС] 

gasservice

Стаж: 9 месяцев

Сообщений: 254


gasservice · 09-Ноя-18 14:46 (спустя 3 часа)

[Цитировать] 

Pigy
спасибо, нам важно качество, а срок раздачи может и подождать
[Профиль]  [ЛС] 

Pigy

RG Русские сериалы

Стаж: 10 лет

Сообщений: 3499

Pigy · 10-Ноя-18 18:41 (спустя 1 день 3 часа)

[Цитировать] 

Друзья и опять меня извиняйте.
Решил все таки заменить файлы на WEB-DL, как было изначально, правда сейчас вебка другая из другого источника.
Изначально когда появились проблемы с выходом 3-4 серии, я специально ждал вдруг появится и не торопился выкладывать HDTV 1080, подождал два дня, подумал и заменил изначальную WEB-DL 1080 на HDTV 1080.Теперь же с выходом всех серий всплыли WEB-DL 1080, причем даже без логотипа НТВ. Опять дилемма. Учитывая практически идентичное качество, в итоге решил все таки вновь заменить на WEB-DL 1080 теперь окончательно. Главные преимущества WEB-DL - чистый видеоряд безо всяких логотипов и всплывающих надписей которых в HDTV 1080 было полно, к тому же вес раздачи меньше на несколько гигабайт.
Надеюсь на ваше понимание. Добавлены все серии сериала. Перед скачиванием удалите полностью вместе с папкой все скачанные ранее файлы из данной раздачи.
Приятного просмотра.
[Профиль]  [ЛС] 
 
Ответить
Loading...
Error