Адрес РуТрекера для пользователей РФ - 11.MainTracker.org

Расскажи друзьям:  

Кто ты? / Серии: 1-16 из 16 (Анатолий Матешко) [2018, Детектив, DVB]

Страницы:  1

Ответить
Автор
Сообщение

Wentworth_Miller

Помощник модератора

Стаж: 9 лет 8 месяцев

Сообщений: 5717

Wentworth_Miller · 26-Ноя-18 15:45 (13 дней назад, ред. 01-Дек-18 12:22)

Кто ты?
Год выпуска: 2018
Производство: Кинокомпания "Упс"
Жанр: Детектив
Продолжительность: ~ 00:44:00
Субтитры: Украинские (не отключаемые)
Режиссёр: Анатолий Матешко
В ролях: Екатерина Кузнецова, Антон Батырев, Ярослав Гуревич, Игорь Пазыч, Мирослав Павличенко, Анастасия Матешко, Олег Примогенов, Ренат Сеттаров
Описание: История о психотерапевте Инге Штефан, перешедшей в криминальный профайлинг после странной гибели нескольких ее пациентов, а ранее – исчезновения жениха. Параллельно со своим расследованием Инга работает с убойным отделом Главка полиции. В ходе развития сюжета героиня узнает, что за ней много лет следит маньяк, виновный не только в смертях ее пациентов и жениха...
Реклама: Нет
Сэмпл: http://multi-up.com/1216002
Качество: DVB - Серый1779
Формат: TS
Видео кодек: MPEG2
Аудио кодек: MP2
Видео: MPEG-2, ~ 3680 Кбит/с, [email protected]х576, 25,000 кадр/с
Аудио: МР2, 48.0 kHz, 2 ch, 192 Кбит/с
MI
Общее
Идентификатор : 1 (0x1)
Полное имя : E:\Кто ты.(2018).DVB.Files-x\01.Кто ты.(2018).DVB.by.Серый1779.Files-x.ts
Формат : MPEG-TS
Размер файла : 1,25 Гбайт
Продолжительность : 43 м. 50 с.
Режим общего битрейта : Переменный
Общий поток : 4076 Кбит/сек
Видео
Идентификатор : 2405 (0x965)
Идентификатор меню : 6610 (0x19D2)
Формат : MPEG Video
Версия формата : Version 2
Профиль формата : [email protected]
Настройки формата : CustomMatrix / BVOP
Параметр BVOP формата : Да
Параметр матрицы формата : Выборочная
Параметр GOP формата : Variable
Структура изображения : Frame
Идентификатор кодека : 2
Продолжительность : 43 м. 50 с.
Вид битрейта : Переменный
Битрейт : 3680 Кбит/сек
Максимальный битрейт : 15,0 Мбит/сек
Ширина : 704 пикселя
Высота : 576 пикселей
Соотношение сторон : 16:9
Частота кадров : 25,000 кадров/сек
Стандарт вещания : PAL
Цветовое пространство : YUV
Субдискретизация насыщенности : 4:2:0
Битовая глубина : 8 бит
Тип развёртки : Чересстрочная
Порядок развёртки : Верхнее поле первое
Метод сжатия : С потерями
Бит/(Пиксели*Кадры) : 0.363
Временной код первого кадра : 00:00:00:00
Оригинал временного кода : Group of pictures header
GOP, открыто/закрыто : Открыто
GOP, открыто/закрыто на первом кадре : Закрыто
Размер потока : 1,13 Гбайт (90%)
Аудио
Идентификатор : 2406 (0x966)
Идентификатор меню : 6610 (0x19D2)
Формат : MPEG Audio
Версия формата : Version 1
Профиль формата : Layer 2
Идентификатор кодека : 3
Продолжительность : 43 м. 50 с.
Вид битрейта : Постоянный
Битрейт : 192 Кбит/сек
Каналы : 1 канал
Частота : 48,0 КГц
Частота кадров : 41,667 кадра/сек (1152 SPF)
Метод сжатия : С потерями
Задержка видео : 19 мс.
Размер потока : 60,2 Мбайт (5%)
Язык : Ukrainian

Скриншоты

Предыдущие и альтернативные раздачи
Download
Чтобы скачать .torrent файл необходима регистрация
Сайт не распространяет и не хранит электронные версии произведений, а лишь предоставляет доступ к создаваемому пользователями каталогу ссылок на торрент-файлы, которые содержат только списки хеш-сумм
[Профиль]  [ЛС] 
 

[email protected]

Стаж: 8 лет 5 месяцев

Сообщений: 73

[email protected] · 07-Дек-18 01:00 (спустя 10 дней, ред. 07-Дек-18 01:00)

[Цитировать] 

С каких пор
страна
Украина стала русскими сериалами?
https://www.kinopoisk.ru/film/kto-ty-2018-1209742/
[Профиль]  [ЛС] 

kaunt49

Стаж: 9 лет 9 месяцев

Сообщений: 7


kaunt49 · 07-Дек-18 19:44 (спустя 18 часов)

[Цитировать] 

Модератор, перенесите в Зарубежные сериалы!!!!
[Профиль]  [ЛС] 
 
Ответить
Loading...
Error