Адрес РуТрекера для пользователей РФ - 11.MainTracker.org

Расскажи друзьям:  

Ангелина / Серии: 1-8 из 16 (Роман Барабаш) [2018, драма, WEBRip]

Страницы:  1

Ответить
Автор
Сообщение

Pigy

RG Русские сериалы

Стаж: 10 лет 1 месяц

Сообщений: 3737

Pigy · 04-Дек-18 15:19 (5 дней назад, ред. 07-Дек-18 14:28)

Ангелина
Год выпуска: 2018
Производство: Filmstream, Vileton production
Жанр: драма
Продолжительность: ~00:45:00 серия
Субтитры: нет
Режиссёр: Роман Барабаш
В ролях: Мария Куликова, Виталий Кудрявцев, Татьяна Колганова, Александр Арсентьев, Александр Яцко, Леонид Громов, Анна Сагайдачная, Сергей Козлов, Виктория Левченко, Олег Загородний, Мария Трепикова, Анастасия Цымбалару, Владислав Писаренко, Олег Щербина, Дарья Легейда, Полина Василина, Юлия Шугар, Влад Никитюк, Юрий Фелипенко, Анна Кузина, Галина Корнеева, Елена Бондарева-Репина, Оксана Архангельская, Татьяна Ружавская, Владислав Мамчур, Борислав Борисенко, Елена Колесниченко, Игорь Рубашкин, Наталия Бабенко
Описание: Юная Ангелина унаследовала от бабки-травницы секреты народной медицины и ее обширную клиентуру. Ангелине по душе семейное занятие, которому она посвящает все свое время, несмотря на то, что жених Павел Коростылев уговаривает девушку бросить знахарство ради их общего будущего. Упрямство Ангелины и интриги ее соперницы Инги Думановой, влюбленной в Павла, делают свое дело. Ангелина и Павел расстаются – и каждый из них в этом разрыве винит противоположную сторону. Зато на улице Инги наступает праздник – свадьба с Павлом не за горами. А вскоре у молодой пары рождаются мальчики-близнецы...

Реклама: Нет.
Все раздачи сериала
Sample
Качество: WEBRip - Nicodem.Files-x
Формат: AVI
Видео кодек: XviD
Аудио кодек: AC3
Видео: 720x400 (1.80:1), 25 fps, XviD build 73 ~1600 kbps avg, 0.224 bit/pixel
Аудио: 48.0 kHz, AC3 Dolby Digital, 2/0 (L,R) ch, ~ 192 kbps
Внимание! Раздача ведётся путём добавления новых серий
Раздача ведётся путём добавления новых серий, при каждом добавлении создаётся новый торрент. Чтобы начать докачку новой серии, пользователям необходимо сделать следующее:
- Остановить скачивание.
- Удалить старый торрент у себя из клиента (старые серии удалять не надо).
- Скачать новый торрент и запустить его у себя в клиенте вместо старого, при этом указать клиенту путь в старую папку куда и должно происходить скачивание новых серий.
Ваш клиент при этом должен произвести хеширование (проверку) старой папки (если не производит сам - помогите ему сделать это), и будет докачивать только те серии которых у вас ещё нет. Старые серии при этом не удаляются, а продолжают раздаваться!
Если вы уже удалили старые серии, то предотвратить повторную закачку старых серий можно, отжав галочку в соответствующих местах при запуске нового торрента. По возможности, желательно не удалять старые серии как можно дольше, чтобы релизер не столько продолжал раздавать старые серии, а смог сконцентрироваться на новых.
MI
General
Complete name : D:\Ментовские войны. Харьков.2018.WEB-DLRip.by.Nicodem.Files-x\01.Ментовские войны. Харьков.2018.WEB-DLRip.by.Nicodem.Files-x.avi
Format : AVI
Format/Info : Audio Video Interleave
File size : 601 MiB
Duration : 46mn 14s
Overall bit rate : 1 818 Kbps
Writing application : VirtualDubMod 1.5.10.3 | www.virtualdub-fr.org || (build 2550/release)
Writing library : VirtualDubMod build 2550/release
Video
ID : 0
Format : MPEG-4 Visual
Format profile : Advanced [email protected]
Format settings, BVOP : 1
Format settings, QPel : No
Format settings, GMC : No warppoints
Format settings, Matrix : Custom
Codec ID : XVID
Codec ID/Hint : XviD
Duration : 46mn 14s
Bit rate : 1 616 Kbps
Width : 720 pixels
Height : 400 pixels
Display aspect ratio : 16:9
Frame rate : 25.000 fps
Color space : YUV
Chroma subsampling : 4:2:0
Bit depth : 8 bits
Scan type : Progressive
Compression mode : Lossy
Bits/(Pixel*Frame) : 0.224
Stream size : 535 MiB (89%)
Writing library : XviD 73
Audio
ID : 1
Format : AC-3
Format/Info : Audio Coding 3
Mode extension : CM (complete main)
Format settings, Endianness : Big
Codec ID : 2000
Duration : 46mn 14s
Bit rate mode : Constant
Bit rate : 192 Kbps
Channel count : 2 channels
Channel positions : Front: L R
Sampling rate : 48.0 KHz
Bit depth : 16 bits
Compression mode : Lossy
Stream size : 63.5 MiB (11%)
Alignment : Split accross interleaves
Interleave, duration : 40 ms (1.00 video frame)
Interleave, preload duration : 500 ms
Скриншоты
Download
Чтобы скачать .torrent файл необходима регистрация
Сайт не распространяет и не хранит электронные версии произведений, а лишь предоставляет доступ к создаваемому пользователями каталогу ссылок на торрент-файлы, которые содержат только списки хеш-сумм
[Профиль]  [ЛС] 
 

Pigy

RG Русские сериалы

Стаж: 10 лет 1 месяц

Сообщений: 3737

Pigy · 06-Дек-18 10:49 (спустя 1 день 19 часов, ред. 06-Дек-18 10:49)

[Цитировать] 

Добавлены 3-4 серии.
Добавлены 5-6 серии.
[Профиль]  [ЛС] 

466958

Стаж: 10 лет 7 месяцев

Сообщений: 5


466958 · 07-Дек-18 05:32 (спустя 18 часов)

[Цитировать] 

как ффиольм? стоит смотреть? Эгей! Кто нибудь напишите))))
[Профиль]  [ЛС] 

ksundel83

Стаж: 9 лет 9 месяцев

Сообщений: 3


ksundel83 · 07-Дек-18 06:52 (спустя 1 час 19 мин.)

[Цитировать] 

466958 писал(а):
76452099как ффиольм? стоит смотреть? Эгей! Кто нибудь напишите))))
мне очень понравился, жду дальше серии
[Профиль]  [ЛС] 

Pigy

RG Русские сериалы

Стаж: 10 лет 1 месяц

Сообщений: 3737

Pigy · 07-Дек-18 14:28 (спустя 7 часов)

[Цитировать] 

Добавлены 7-8 серия.
[Профиль]  [ЛС] 

babkamarina

Стаж: 9 лет 6 месяцев

Сообщений: 18


babkamarina · 10-Дек-18 06:22 (спустя 2 дня 15 часов)

[Цитировать] 

Большое спасибо, Pigy ! Ваши производительность и качество выше всяких похвал. Кстати, интересно, когда вы спите?
[Профиль]  [ЛС] 

Pigy

RG Русские сериалы

Стаж: 10 лет 1 месяц

Сообщений: 3737

Pigy · 10-Дек-18 06:49 (спустя 27 мин.)

[Цитировать] 

babkamarina писал(а):
76472219Большое спасибо, Pigy ! Ваши производительность и качество выше всяких похвал. Кстати, интересно, когда вы спите?
Пожалуйста.
О, точно, я думаю чего же мне не хватает в моей жизни, точно сна. Спасибо что подсказали.
[Профиль]  [ЛС] 
 
Ответить
Loading...
Error