Адрес РуТрекера для пользователей РФ - 11.MainTracker.org

Расскажи друзьям:  

Свои / Серии: 1-8 из ?? (Михаил Колпахчиев) [2017, детектив, WEBRip]

Страницы:  1

Ответить
Автор
Сообщение

Pigy

RG Русские сериалы

Стаж: 10 лет 1 месяц

Сообщений: 3737

Pigy · 06-Дек-18 06:28 (4 дня назад, ред. 07-Дек-18 04:02)

Свои
Год выпуска: 2017
Производство: 5 канал
Жанр: детектив
Продолжительность: ~00:47:00 серия
Субтитры: нет
Режиссёр: Михаил Колпахчиев
В ролях: Антон Васильев, Полина Толстун, Инна Степанова, Ирина Горячева, Анна Лапина, Олег Жилин, Ярослав Воронцов, Степан Бекетов, Игорь Угаров, Игорь Лепихин
Описание: «СВОИ» — это команда лучших экспертов из разных структур, которые объединились, чтобы разгадывать самые нетривиальные детективные загадки. Судмедэксперт, криминалист, дознаватель, программист, психолог и даже экстрасенс! У каждого из них свой характер, свои слабости и, конечно же, свои суперспособности. Но при этом, как и любой из нас, они обыкновенные живые люди. Они «СВОИ».

Реклама: Нет.
Кинопоиск
Все раздачи сериала
Sample
Качество: WEBRip - Files-x
Формат: AVI
Видео кодек: XviD
Аудио кодек: AC3
Видео: 720x400 (1.80:1), 25 fps, XviD build 73 ~1570 kbps avg, 0.218 bit/pixel
Аудио: 48.0 kHz, AC3 Dolby Digital, 2/0 (L,R) ch, ~ 192 kbps
Внимание! Раздача ведётся путём добавления новых серий
Раздача ведётся путём добавления новых серий, при каждом добавлении создаётся новый торрент. Чтобы начать докачку новой серии, пользователям необходимо сделать следующее:
- Остановить скачивание.
- Удалить старый торрент у себя из клиента (старые серии удалять не надо).
- Скачать новый торрент и запустить его у себя в клиенте вместо старого, при этом указать клиенту путь в старую папку куда и должно происходить скачивание новых серий.
Ваш клиент при этом должен произвести хеширование (проверку) старой папки (если не производит сам - помогите ему сделать это), и будет докачивать только те серии которых у вас ещё нет. Старые серии при этом не удаляются, а продолжают раздаваться!
Если вы уже удалили старые серии, то предотвратить повторную закачку старых серий можно, отжав галочку в соответствующих местах при запуске нового торрента. По возможности, желательно не удалять старые серии как можно дольше, чтобы релизер не столько продолжал раздавать старые серии, а смог сконцентрироваться на новых.
MI
General
Complete name : D:\Svoi.2017.WEB-DLRip. Files-x\01.Svoi.2017.WEB-DLRip. Files-x.avi
Format : AVI
Format/Info : Audio Video Interleave
File size : 601 MiB
Duration : 47 min 29 s
Overall bit rate : 1 770 kb/s
Writing application : VirtualDubMod 1.5.10.3 | www.virtualdub-fr.org || (build 2550/release)
Writing library : VirtualDubMod build 2550/release
Video
ID : 0
Format : MPEG-4 Visual
Format profile : Advanced [email protected]
Format settings : BVOP1 / Custom Matrix
Format settings, BVOP : 1
Format settings, QPel : No
Format settings, GMC : No warppoints
Format settings, Matrix : Custom
Codec ID : XVID
Codec ID/Hint : XviD
Duration : 47 min 29 s
Bit rate : 1 568 kb/s
Width : 720 pixels
Height : 400 pixels
Display aspect ratio : 16:9
Frame rate : 25.000 FPS
Color space : YUV
Chroma subsampling : 4:2:0
Bit depth : 8 bits
Scan type : Progressive
Compression mode : Lossy
Bits/(Pixel*Frame) : 0.218
Stream size : 533 MiB (89%)
Writing library : XviD 73
Audio
ID : 1
Format : AC-3
Format/Info : Audio Coding 3
Codec ID : 2000
Duration : 47 min 29 s
Bit rate mode : Constant
Bit rate : 192 kb/s
Channel(s) : 2 channels
Channel positions : Front: L R
Sampling rate : 48.0 kHz
Frame rate : 31.250 FPS (1536 SPF)
Bit depth : 16 bits
Compression mode : Lossy
Stream size : 65.2 MiB (11%)
Alignment : Split accross interleaves
Interleave, duration : 40 ms (1.00 video frame)
Interleave, preload duratio : 500 ms
Service kind : Complete Main
Скриншоты
Download
Чтобы скачать .torrent файл необходима регистрация
Сайт не распространяет и не хранит электронные версии произведений, а лишь предоставляет доступ к создаваемому пользователями каталогу ссылок на торрент-файлы, которые содержат только списки хеш-сумм
[Профиль]  [ЛС] 
 

GenaT

Стаж: 2 года 8 месяцев

Сообщений: 98

GenaT · 06-Дек-18 15:19 (спустя 8 часов)

[Цитировать] 

Спасибо, а какой график выхода серий? И сколько их в сезоне?
[Профиль]  [ЛС] 

SoN1K871

Стаж: 7 месяцев

Сообщений: 1

SoN1K871 · 06-Дек-18 17:55 (спустя 2 часа 36 мин.)

[Цитировать] 

Кто нибудь уже смотрел? Какое впечатление?
[Профиль]  [ЛС] 

Pigy

RG Русские сериалы

Стаж: 10 лет 1 месяц

Сообщений: 3737

Pigy · 06-Дек-18 19:02 (спустя 1 час 6 мин., ред. 06-Дек-18 19:02)

[Цитировать] 

GenaT писал(а):
76448408Спасибо, а какой график выхода серий? И сколько их в сезоне?
На оба вопроса нет ответа. Да и вряд ли кто вам даст точную инфу.
В целом ситуация такая: в ноябре-декабре 2017 года 5 канал показал несколько серий(4 или 5 сейчас уже точно не скажу), и прервал показ. Прошел год, наступил декабрь и они с какого-то перепугу стали показывать продолжение. Как долго это продлиться? Покажут ли все серии? И сколько их всего? Всё это под большим вопросом.
Так что поживем - увидим.
[Профиль]  [ЛС] 

SH4008

Стаж: 5 лет 8 месяцев

Сообщений: 51


SH4008 · 06-Дек-18 19:50 (спустя 48 мин.)

[Цитировать] 

Почти всех актеров менять это ноу-хау такое. И так не шедевр был, а с 5 серии совсем дурдом.
[Профиль]  [ЛС] 

Pigy

RG Русские сериалы

Стаж: 10 лет 1 месяц

Сообщений: 3737

Pigy · 07-Дек-18 04:02 (спустя 8 часов)

[Цитировать] 

Добавлена 8 серия.
[Профиль]  [ЛС] 

vladislaw2036

Стаж: 8 лет 9 месяцев

Сообщений: 12


vladislaw2036 · 07-Дек-18 07:16 (спустя 3 часа)

[Цитировать] 

SoN1K871 писал(а):
76449182Кто нибудь уже смотрел? Какое впечатление?
Крымский мост спасают, бред полный
[Профиль]  [ЛС] 

m12777

Стаж: 9 лет 10 месяцев

Сообщений: 1


m12777 · 09-Дек-18 12:01 (спустя 2 дня 4 часа)

[Цитировать] 

Никакой предыстории главных героев - кто они, что, ...
но этого мало оказалось видно -
с 5ой серии взяли и сменили Антона Васильева !
(он и так редко там появлялся в кадре, что удивительно -гляньте Невский сериал..., и его начальницу) - глупость полная,
дальше можно не смотреть.
[Профиль]  [ЛС] 
 
Ответить
Loading...
Error