Адрес РуТрекера для пользователей РФ - 11.MainTracker.org

Расскажи друзьям:  

Желтый глаз тигра / Серии: 1-16 из 16 (Марк Горобец) [2018, Боевик, криминал, SATRip]

Страницы:  1

Ответить
Автор
Сообщение

Сибиряк777

Top Seed 05* 640r

Стаж: 10 лет 2 месяца

Сообщений: 3022

Сибиряк777 · 07-Дек-18 18:29 (2 дня 15 часов назад)

Желтый глаз тигра
Год выпуска: 2018
Производство: Кинокомпания «Профит»
Жанр: Боевик, криминал
Продолжительность: 00:45:54
Субтитры: нет
Режиссёр: Марк Горобец
В ролях: Павел Прилучный, Карина Андоленко, Роман Курцын, Максим Костромыкин, Виталий Кищенко, Екатерина Буйлова, Иван Ивашкин, Маша Шерстобитова, Светлана Степанковская, Сергей Пускепалис, Евгения Добровольская, Агния Кузнецова, Катерина Шпица, Борис Каморзин, Лариса Шахворостова, Раиса Рязанова, Александра Ребенок, Игорь Филиппов, Юлия Агафонова, Александр Лымарев, Александр Никольский (II), Владимир Чуприков, Максим Глотов, Никита Абдулов, Сергей Друзьяк, Александра Скачкова, Александр Андриенко, Андрей Гусев, Арсений Васильевых, Евгений Мундум
Описание: 1988 год, Калининград. Четверо лучших друзей отмечают школьный выпускной и делятся планами на будущее, мечтая связать свою жизнь с янтарем.
Но янтарный бизнес превращает бывших юных мечтателей в алчных хладнокровных дельцов, не гнушающихся даже воровством и убийствами.
Спустя 15 лет одному из героев придется бороться с друзьями юности, чтобы разоблачить преступную сеть и остановить «янтарный беспредел».
Сэмпл: http://multi-up.com/1216923
Автор рипа: 25Kuzmich
Качество: SATRip
Формат: AVI
Видео кодек: XviD
Аудио кодек: MP3
Видео: 720x304 (2.35:1), 25.000 fps, XviD, 1650 Kbps, 0.30 bit/pixel
Аудио: 48 kHz, MP3, 2/0 (L,R) ch, 192.00 kbps
Реклама: Нет
MI
General
Complete name : Downloads\Zheltyy.glaz.tigra.2018.XviD.SATRip.25Kuzmich\Zheltyy.glaz.tigra.e01.XviD.SATRip.25Kuzmich.avi
Format : AVI
Format/Info : Audio Video Interleave
File size : 608 MiB
Duration : 45mn 54s
Overall bit rate : 1 852 Kbps
Writing application : VirtualDubMod 1.5.10.3 | www.virtualdub-fr.org || (build 2550/release)
Writing library : VirtualDubMod build 2550/release
Video #0
ID : 0
Format : MPEG-4 Visual
Format profile : Advanced [email protected]
Format settings, BVOP : 1
Format settings, QPel : No
Format settings, GMC : No warppoints
Format settings, Matrix : Default (MPEG)
Codec ID : XVID
Codec ID/Hint : XviD
Duration : 45mn 54s
Bit rate : 1 650 Kbps
Width : 720 pixels
Height : 304 pixels
Display aspect ratio : 2.35:1
Frame rate : 25.000 fps
Color space : YUV
Chroma subsampling : 4:2:0
Bit depth : 8 bits
Scan type : Progressive
Compression mode : Lossy
Bits/(Pixel*Frame) : 0.301
Stream size : 542 MiB (89%)
Writing library : XviD 1.2.1 (UTC 2008-12-04)
Audio #1
ID : 1
Format : MPEG Audio
Format version : Version 1
Format profile : Layer 3
Mode : Joint stereo
Mode extension : MS Stereo
Codec ID : 55
Codec ID/Hint : MP3
Duration : 45mn 54s
Bit rate mode : Constant
Bit rate : 192 Kbps
Channel(s) : 2 channels
Sampling rate : 48.0 KHz
Compression mode : Lossy
Stream size : 63.1 MiB (10%)
Alignment : Aligned on interleaves
Interleave, duration : 40 ms (1.00 video frame)
Interleave, preload duration : 504 ms
Writing library : LAME3.99r
Encoding settings : -m j -V 4 -q 2 -lowpass 18.6 -b 192
Скриншоты
Предыдущие и альтернативные раздачи
Download
Чтобы скачать .torrent файл необходима регистрация
Сайт не распространяет и не хранит электронные версии произведений, а лишь предоставляет доступ к создаваемому пользователями каталогу ссылок на торрент-файлы, которые содержат только списки хеш-сумм
[Профиль]  [ЛС] 
 

Сибиряк777

Top Seed 05* 640r

Стаж: 10 лет 2 месяца

Сообщений: 3022

Сибиряк777 · 07-Дек-18 18:30 (спустя 1 мин.)

[Цитировать] 

Модератору на заметку: зделал альтернативную раздачу в ави, так как в другой раздачи не хватает 3-ёх серий и я не знаю когда они будут добавлены. Поэтому решайте сами, либо эта пускай как временная, либо та другая, на ваш выбор. Полагаюсь на вас.
[Профиль]  [ЛС] 

Lidusia54m

Стаж: 5 лет 6 месяцев

Сообщений: 9


Lidusia54m · 07-Дек-18 18:49 (спустя 18 мин.)

[Цитировать] 

Сибиряк777
Спасибо!!!
[Профиль]  [ЛС] 

Онегин72

Стаж: 9 лет

Сообщений: 74


Онегин72 · 08-Дек-18 13:58 (спустя 19 часов)

[Цитировать] 

Огромное спасибо за AVI!
[Профиль]  [ЛС] 
 
Ответить
Loading...
Error