Адрес РуТрекера для пользователей РФ - 11.MainTracker.org

Расскажи друзьям:  

Исправленному верить / Серии: 1-4 из 4 (Владимир Янковский) [2018, детектив, мелодрама, WEBRip]

Страницы:  1

Ответить
Автор
Сообщение

Pigy

RG Русские сериалы

Стаж: 10 лет 7 месяцев

Сообщений: 5460

Pigy · 17-Дек-18 10:34 (6 месяцев назад)

Исправленному верить
Год выпуска: 2018
Производство: ТА «Иртыш»
Жанр: детектив, мелодрама
Продолжительность: ~00:49:00 серия
Субтитры: нет
Режиссёр: Владимир Янковский
В ролях: Анастасия Крылова, Анатолий Лобоцкий, Игорь Сигов, Евгений Шириков, Алексей Суренский, Дарья Баранова, Анна Полупанова, Андрей Карако
Описание: Маруся с матерью и отчимом живет за границей, куда ее привезли на лечение 10 лет назад. Похоронив родителей, Маруся откладывает свою свадьбу и впервые после долгого отсутствия едет в Россию. У нее есть основания считать, что убийство ее матери связано с их прошлым, но главная цель Маруси познакомиться с отцом, которого не знала. Маруся даже не догадывается, что их встреча таит смертельную опасность.

Реклама: Нет.
Кинопоиск
Все раздачи сериала
Sample
Качество: WEBRip - 25Kuzmich
Формат: AVI
Видео кодек: XviD
Аудио кодек: AC3
Видео: 720x400 (1.80:1), 25 fps, XviD build 73 ~1650 kbps avg, 0.229 bit/pixel
Аудио: 48.0 kHz, AC3 Dolby Digital, 2/0 (L,R) ch, ~ 192 kbps
MI
General
Complete name : D:\Ispravlennomu.verit.2018.WEB-DLRip.25Kuzmich\Ispravlennomu.verit.(01.seriya.iz.04).WEB-DLRip.25Kuzmich.avi
Format : AVI
Format/Info : Audio Video Interleave
File size : 651 MiB
Duration : 49 min 10 s
Overall bit rate : 1 851 kb/s
Video
ID : 0
Format : MPEG-4 Visual
Format profile : Advanced [email protected]
Format settings : BVOP2
Format settings, BVOP : 2
Format settings, QPel : No
Format settings, GMC : No warppoints
Format settings, Matrix : Default (MPEG)
Codec ID : XVID
Codec ID/Hint : XviD
Duration : 49 min 10 s
Bit rate : 1 649 kb/s
Width : 720 pixels
Height : 400 pixels
Display aspect ratio : 16:9
Frame rate : 25.000 FPS
Color space : YUV
Chroma subsampling : 4:2:0
Bit depth : 8 bits
Scan type : Progressive
Compression mode : Lossy
Bits/(Pixel*Frame) : 0.229
Stream size : 580 MiB (89%)
Writing library : XviD 1.2.1 (UTC 2008-12-04)
Audio
ID : 1
Format : AC-3
Format/Info : Audio Coding 3
Codec ID : 2000
Duration : 49 min 10 s
Bit rate mode : Constant
Bit rate : 192 kb/s
Channel(s) : 2 channels
Channel positions : Front: L R
Sampling rate : 48.0 kHz
Frame rate : 31.250 FPS (1536 SPF)
Bit depth : 16 bits
Compression mode : Lossy
Stream size : 67.5 MiB (10%)
Alignment : Split accross interleaves
Interleave, duration : 40 ms (1.00 video frame)
Interleave, preload duratio : 500 ms
Service kind : Complete Main
Скриншоты
Download
Чтобы скачать .torrent файл необходима регистрация
Сайт не распространяет и не хранит электронные версии произведений, а лишь предоставляет доступ к создаваемому пользователями каталогу ссылок на торрент-файлы, которые содержат только списки хеш-сумм
[Профиль]  [ЛС] 
 

BozMozzis

Стаж: 11 лет 4 месяца

Сообщений: 542

BozMozzis · 18-Дек-18 08:21 (спустя 21 час)

Стоит тратить время?
[Профиль]  [ЛС] 

babkamarina

Стаж: 10 лет 1 месяц

Сообщений: 23


babkamarina · 18-Дек-18 11:07 (спустя 2 часа 46 мин., ред. 18-Дек-18 11:07)

Знаете, Pigy, Вы единственный, кто всегда выставляет ссылку на все прочие раздачи. И дело даже не в том, что Вы не боитесь конкуренции. Просто Вы помогаете пользователям выбрать подходящую для них (я полагаю) запись. Это, конечно же, достойно уважения.
Знаете, Pigy, Вы единственный, кто всегда выставляет ссылку на все прочие раздачи. И дело даже не в том, что Вы не боитесь конкуренции. Просто Вы помогаете пользователям выбрать подходящую для них (я полагаю) запись. Это, конечно же, достойно уважения.
[Профиль]  [ЛС] 

vstep

Стаж: 8 лет 9 месяцев

Сообщений: 156

vstep · 19-Дек-18 00:39 (спустя 13 часов)

Люди, кто смотрел, сделайте отзовик, плиз.
[Профиль]  [ЛС] 

kvinax101

Стаж: 8 лет 9 месяцев

Сообщений: 400


kvinax101 · 11-Янв-19 23:31 (спустя 23 дня)

Неожиданно понравилось кино. Оценил бы на "четвёрку с минусом".
скрытый текст
Неплохая постановка, приличные актёры. Совсем не элементарная задача - определить ГЗ.
Но главное даже не в этом, а в том, что фильм смотрится с напряжением, с интересом, как в хорошем детективе.
[Профиль]  [ЛС] 

BozMozzis

Стаж: 11 лет 4 месяца

Сообщений: 542

BozMozzis · 12-Янв-19 10:06 (спустя 10 часов)

innerwish2016, kvinax101, спасибо за оценку
и, естественно, спасибо Pigy за работу!
[Профиль]  [ЛС] 

Igor1948

Стаж: 8 лет 8 месяцев

Сообщений: 360

Igor1948 · 04-Мар-19 13:29 (спустя 1 месяц 23 дня)

Pigy
[Профиль]  [ЛС] 

vacvvm

Стаж: 10 лет 6 месяцев

Сообщений: 1184

vacvvm · 16-Мар-19 11:52 (спустя 11 дней)

kvinax101 писал(а):
76656302фильм смотрится с напряжением, с интересом, как в хорошем детективе.
Это и есть хороший детектив.
[Профиль]  [ЛС] 
 
Ответить
Loading...
Error