Адрес РуТрекера для пользователей РФ - 11.MainTracker.org

Расскажи друзьям:  

Лапси / Сезон: 2 / Серии: 1-3 из 8 (Артем Аксененко) [2019, мистика, триллер, драма, WEBRip 1080p]

Страницы:  1

Ответить
Автор
Сообщение

Pigy

RG Русские сериалы

Стаж: 10 лет 2 месяца

Сообщений: 4012

Pigy · 04-Янв-19 10:17 (18 дней назад, ред. 17-Янв-19 08:24)

Лапси
Год выпуска: 2019
Производство: Yellow, Black and White, Кинокомпания «Небо»
Жанр: мистика, триллер, драма
Продолжительность: ~00:48:00 серия
Субтитры: нет
Режиссёр: Артем Аксененко
В ролях: Мария Машкова, Даниил Воробьёв, Диана Пожарская, Антон Кузнецов, Денис Парамонов, Иван Верховых, Наталия Вдовина, Владимир Чуприков, Михаил Химичев, Максим Жегалин, Олег Дуленин, Ирина Чериченко, Алла Иванцова, Борис Хвошнянский, Максим Белбородов

Описание: В карельской деревне обнаружен штамм нетипичного для местности заболевания — лихорадки Западного Нила. Руководитель НИИ Вирусологии отправляет на разведку эпидемиологов-вирусологов Веру Бойко и Николая Романова. Их связывает непростое прошлое, и соглашаются на совместную командировку они с трудом. В поисках источника вируса Вера и Николай обнаруживают у себя симптомы смертельно опасной болезни. Когда на странном острове Сариола она вдруг отступает, трудности только начинаются. Учёным предстоит разгадать тайну этого места, постичь непростые правила выживания среди его жителей, разобраться в своих отношениях, которые закончились много лет назад, и найти способ вернуться домой, ведь при попытке сбежать симптомы лихорадки возвращаются.

Реклама: Нет.
Кинопоиск
Все раздачи сериала
Sample
Качество: WEBRip 1080p - Files-x
Формат: MKV
Видео кодек: H.264
Аудио кодек: AC3
Видео: MPEG4 AVC Video, H264, 16:9, 1920x1080, 23.976 fps, ~6250 kbps, 0.126 bit/pixel
Аудио: AC3 Dolby Digital, 48.0 kHz, 2/0 (L,R) ch, 192 kbps
Внимание! Раздача ведётся путём добавления новых серий
Раздача ведётся путём добавления новых серий, при каждом добавлении создаётся новый торрент. Чтобы начать докачку новой серии, пользователям необходимо сделать следующее:
- Остановить скачивание.
- Удалить старый торрент у себя из клиента (старые серии удалять не надо).
- Скачать новый торрент и запустить его у себя в клиенте вместо старого, при этом указать клиенту путь в старую папку куда и должно происходить скачивание новых серий.
Ваш клиент при этом должен произвести хеширование (проверку) старой папки (если не производит сам - помогите ему сделать это), и будет докачивать только те серии которых у вас ещё нет. Старые серии при этом не удаляются, а продолжают раздаваться!
Если вы уже удалили старые серии, то предотвратить повторную закачку старых серий можно, отжав галочку в соответствующих местах при запуске нового торрента. По возможности, желательно не удалять старые серии как можно дольше, чтобы релизер не столько продолжал раздавать старые серии, а смог сконцентрироваться на новых.
MI
General
Unique ID : 221232690643195766111822656679127476278 (0xA66FDDC9AF3125E0B7341D16AD9AE836)
Complete name : D:\Лапси.(2019).WEB-DL.1080p\01.Лапси. 2019.WEB-DL 1080p. Files-x.mkv
Format : Matroska
Format version : Version 2
File size : 2.25 GiB
Duration : 48 min 58 s
Overall bit rate : 6 564 kb/s
Encoded date : UTC 2019-01-03 23:09:01
Writing application : mkvmerge v7.8.0 ('River Man') 32bit built on Apr 3 2015 12:11:22
Writing library : libebml v1.3.1 + libmatroska v1.4.2
Video
ID : 1
Format : AVC
Format/Info : Advanced Video Codec
Format profile : [email protected]
Format settings : CABAC / 4 Ref Frames
Format settings, CABAC : Yes
Format settings, ReFrames : 4 frames
Codec ID : V_MPEG4/ISO/AVC
Duration : 48 min 58 s
Bit rate : 6 241 kb/s
Width : 1 920 pixels
Height : 1 080 pixels
Display aspect ratio : 16:9
Frame rate mode : Constant
Frame rate : 23.976 (24000/1001) FPS
Color space : YUV
Chroma subsampling : 4:2:0
Bit depth : 8 bits
Scan type : Progressive
Bits/(Pixel*Frame) : 0.126
Stream size : 2.14 GiB (95%)
Default : Yes
Forced : No
Audio
ID : 2
Format : AC-3
Format/Info : Audio Coding 3
Codec ID : A_AC3
Duration : 48 min 58 s
Bit rate mode : Constant
Bit rate : 192 kb/s
Channel(s) : 2 channels
Channel positions : Front: L R
Sampling rate : 48.0 kHz
Frame rate : 31.250 FPS (1536 SPF)
Bit depth : 16 bits
Compression mode : Lossy
Stream size : 67.3 MiB (3%)
Service kind : Complete Main
Default : Yes
Forced : No
Скриншоты
Download
Чтобы скачать .torrent файл необходима регистрация
Сайт не распространяет и не хранит электронные версии произведений, а лишь предоставляет доступ к создаваемому пользователями каталогу ссылок на торрент-файлы, которые содержат только списки хеш-сумм
[Профиль]  [ЛС] 
 

sergei726 61

Стаж: 9 лет 8 месяцев

Сообщений: 26

sergei726 61 · 07-Янв-19 17:03 (спустя 3 дня)

[Цитировать] 

График выхода серий
2 сезон 1 серия 4 января 2019
2 сезон 2 серия 11 января 2019
2 сезон 3 серия 18 января 2019
2x04 25 января 2019
2x05 1 февраля 2019
2x06 8 февраля 2019
2x07 15 февраля 2019
2x08 22 февраля 2019
[Профиль]  [ЛС] 

Pigy

RG Русские сериалы

Стаж: 10 лет 2 месяца

Сообщений: 4012

Pigy · 10-Янв-19 09:32 (спустя 2 дня 16 часов)

[Цитировать] 

Добавлена 2 серия.
[Профиль]  [ЛС] 

YUKOV

Стаж: 9 лет 1 месяц

Сообщений: 414

YUKOV · 10-Янв-19 11:01 (спустя 1 час 29 мин.)

[Цитировать] 

23.976 fps
[Профиль]  [ЛС] 

re-vers

Стаж: 6 лет 7 месяцев

Сообщений: 35

re-vers · 10-Янв-19 15:55 (спустя 4 часа)

[Цитировать] 

неожиданное продолжение!
[Профиль]  [ЛС] 

СЕРГИЙ SS

Стаж: 1 год 5 месяцев

Сообщений: 5


СЕРГИЙ SS · 11-Янв-19 10:52 (спустя 18 часов)

[Цитировать] 

Махонькие, глубоко посаженные глазёнки, не красивый рот, широченные скулы, мужской, тяжеленный подбородок, никакая фигура, отсутствие грации и пластики, женского обаяния, а главное, ни намёка на актёрский талант, это мАшкова!! Хуцпа, в чистом виде, заявлять её в фильме красавицей (может разве-что, только для её папы).... Но, за Ваши раздачи, в прекрасном качестве, от Души, Огромная Вам, БлагоДарность, Pigy!!....Будем надеяться, что киношники, кроме У.Г. снятого за "три копейки", с уродинами в главных ролях, которых ещё и нагло выдают за "красавиц", будут делать и достойное кино....
[Профиль]  [ЛС] 

imirage

Стаж: 7 лет 4 месяца

Сообщений: 41

imirage · 12-Янв-19 23:06 (спустя 1 день 12 часов)

[Цитировать] 

Ооо ништяк, сезон заключительный?
[Профиль]  [ЛС] 

Pigy

RG Русские сериалы

Стаж: 10 лет 2 месяца

Сообщений: 4012

Pigy · 17-Янв-19 08:24 (спустя 4 дня)

[Цитировать] 

Добавлена 3 серия.
[Профиль]  [ЛС] 

Михаил16

Стаж: 10 лет 8 месяцев

Сообщений: 110

Михаил16 · 17-Янв-19 14:41 (спустя 6 часов)

[Цитировать] 

Интересно, в каком сезоне им проведут интернет?
[Профиль]  [ЛС] 

guddine13

Стаж: 7 лет 2 месяца

Сообщений: 19

guddine13 · 17-Янв-19 18:31 (спустя 3 часа)

[Цитировать] 

1 сезон шняга конечно полная, у сценариста "кукушка" съехала добротно.
[Профиль]  [ЛС] 

needle_xa

Стаж: 8 лет 11 месяцев

Сообщений: 83


needle_xa · 19-Янв-19 10:34 (спустя 1 день 16 часов)

[Цитировать] 

guddine13 писал(а):
766904821 сезон шняга конечно полная, у сценариста "кукушка" съехала добротно.
Да ладно; если не понятно, то ещё не значит что автор непонятного чёкнутый. Пожалуйста воздержитесь от оскорблений.
[Профиль]  [ЛС] 
 
Ответить
Loading...
Error