Адрес РуТрекера для пользователей РФ - 11.MainTracker.org

Расскажи друзьям:  

Её секрет / Сезон: 1 / Серии: 1-4 из 4 (Карен Захаров) [2018, детектив, комедия, криминал, WEBRip]

Страницы:  1

Ответить
Автор
Сообщение

Сме_ша_рик

Moderator

Стаж: 10 лет 3 месяца

Сообщений: 1951

Сме_ша_рик · 04-Янв-19 12:25 (2 месяца 17 дней назад)

Её секрет
Год выпуска: 2018
Производство: Россия ХитФильм
Жанр: детектив, комедия, криминал
Продолжительность: 00:44:00
Субтитры: нет
Режиссёр: Карен Захаров
В ролях: Филипп Бледный, Анастасия Мытражик, Александр Наумов, Ирина Чериченко, Александра Богданова, Ольга Науменко, Виталий Альшанский
Описание: Игорь - молодой перспективный юрист, делающий первые шаги по завоеванию Москвы. И удача на его стороне - его берут на работу в крупную девелоперскую компанию. Впереди блестящая карьера и счастливая жизнь с красавицей Жанной. Их роман стремительно развивается, когда Игорь вдруг понимает, что дочь главы компании по уши влюблена в него. Маша - девушка невзрачная, словно не от мира сего, полная противоположность яркой и темпераментной Жанны. Но стоит Игорю только ответить взаимностью единственной дочери олигарха, как все, о чем он мечтал, сбудется. Однако Жанну он любит по-настоящему и уже собирается сделать ей предложение. Несколько месяцев Игорь ведет мучительную двойную жизнь, прежде чем окончательно делает выбор в пользу богатой наследницы. Однако он не догадывается, что стал пешкой в чужой игре. Очень скоро жизнь преуспевающего молодого человека превратится в настоящий ад, и ему снова придется делать выбор...
Реклама: Нет
Сэмпл: https://www.sendspace.com/file/7szjyu
Качество: WEBRip
Формат: AVI
Видео кодек: XviD
Аудио кодек: AC3
Видео: XVID; 720х400 (16:9); 1555 Кбит/сек; 25,000 кадров/сек; Бит/(Пиксели*Кадры): 0.216
Аудио: AC-3; 192 Кбит/сек; 2 канала; 48,0 КГц
MI
Общее
Полное имя : D:\закачки\Ee.Sekret.2018.WEB-DLRip.GeneralFilm\Ee.Sekret.e02.avi
Формат : AVI
Формат/Информация : Audio Video Interleave
Размер файла : 557 Мбайт
Продолжительность : 44 м. 19 с.
Общий поток : 1757 Кбит/сек
Программа кодирования : VirtualDubMod 1.5.10.3 | www.virtualdub-fr.org || (build 2550/release)
Библиотека кодирования : VirtualDubMod build 2550/release
Видео
Идентификатор : 0
Формат : MPEG-4 Visual
Профиль формата : Advanced [email protected]
Настройки формата : BVOP1 / Custom Matrix
Параметр BVOP формата : 1
Параметр QPel формата : Нет
Параметр GMC формата : Без точки перехода
Параметр матрицы формата : Выборочная
Идентификатор кодека : XVID
Идентификатор кодека/Подсказка : XviD
Продолжительность : 44 м. 19 с.
Битрейт : 1555 Кбит/сек
Ширина : 720 пикселей
Высота : 400 пикселей
Соотношение сторон : 16:9
Частота кадров : 25,000 кадров/сек
Цветовое пространство : YUV
Субдискретизация насыщенности : 4:2:0
Битовая глубина : 8 бит
Тип развёртки : Прогрессивная
Метод сжатия : С потерями
Бит/(Пиксели*Кадры) : 0.216
Размер потока : 493 Мбайт (89%)
Библиотека кодирования : XviD 73
Аудио
Идентификатор : 1
Формат : AC-3
Формат/Информация : Audio Coding 3
Идентификатор кодека : 2000
Продолжительность : 44 м. 19 с.
Вид битрейта : Постоянный
Битрейт : 192 Кбит/сек
Каналы : 2 канала
Расположение каналов : Front: L R
Частота : 48,0 КГц
Частота кадров : 31,250 кадров/сек (1536 SPF)
Битовая глубина : 16 бит
Метод сжатия : С потерями
Размер потока : 60,9 Мбайт (11%)
Выравнивание : Разделение по промежуткам
Продолжительность промежутка : 40 мс. (1,00 видеокадр)
Время предзагрузки промежутка : 500 мс.
ServiceKind/String : Complete Main
Скриншоты
Предыдущие и альтернативные раздачи
Релиз:
Download
Чтобы скачать .torrent файл необходима регистрация
Сайт не распространяет и не хранит электронные версии произведений, а лишь предоставляет доступ к создаваемому пользователями каталогу ссылок на торрент-файлы, которые содержат только списки хеш-сумм
[Профиль]  [ЛС] 
 

cdbyjvfnrf

Стаж: 4 года 11 месяцев

Сообщений: 79


cdbyjvfnrf · 04-Янв-19 19:09 (спустя 6 часов)

[Цитировать] 

Не очень ,разок посмотреть можно . Раздающему спасибо .
[Профиль]  [ЛС] 

Сме_ша_рик

Moderator

Стаж: 10 лет 3 месяца

Сообщений: 1951

Сме_ша_рик · 04-Янв-19 22:08 (спустя 2 часа 58 мин.)

[Цитировать] 

cdbyjvfnrf
Пожалуйста.
[Профиль]  [ЛС] 

Andrbek

Стаж: 11 лет 10 месяцев

Сообщений: 83

Andrbek · 05-Янв-19 15:46 (спустя 17 часов)

[Цитировать] 

хорошо не 8-12 серий ))
[Профиль]  [ЛС] 

Igor1948

Стаж: 8 лет 5 месяцев

Сообщений: 350

Igor1948 · 06-Янв-19 15:06 (спустя 23 часа)

[Цитировать] 

Сме_ша_рик
[Профиль]  [ЛС] 

Сме_ша_рик

Moderator

Стаж: 10 лет 3 месяца

Сообщений: 1951

Сме_ша_рик · 06-Янв-19 15:53 (спустя 47 мин.)

[Цитировать] 

Всем пожалуйста.
[Профиль]  [ЛС] 

.VIKA.

Стаж: 8 лет 10 месяцев

Сообщений: 589

.VIKA. · 08-Янв-19 18:24 (спустя 2 дня 2 часа)

[Цитировать] 

интересное кино , спасибо :)))
[Профиль]  [ЛС] 

number91

Стаж: 10 лет 10 месяцев

Сообщений: 25


number91 · 09-Янв-19 09:08 (спустя 14 часов, ред. 09-Янв-19 09:08)

[Цитировать] 

Цитата:
Несколько месяцев Игорь ведет мучительную двойную жизнь, прежде чем окончательно делает выбор в пользу богатой наследницы.
Женщины к примеру вообще не мучаются, если есть выбор между кем-то и олигархом.
Странный этот Игорь, понаехал в Москву и страдает угрызениями совести.
[Профиль]  [ЛС] 

alexx111960

Стаж: 8 лет 6 месяцев

Сообщений: 1


alexx111960 · 11-Янв-19 02:36 (спустя 1 день 17 часов)

[Цитировать] 

нормальный фильм, но при чем тут комедия?
[Профиль]  [ЛС] 

velur25619

Стаж: 9 лет 2 месяца

Сообщений: 57

velur25619 · 11-Янв-19 13:40 (спустя 11 часов)

[Цитировать] 

alexx111960 писал(а):
76650862нормальный фильм, но при чем тут комедия?
Патаму что Сме_ша_рик раздаёт
[Профиль]  [ЛС] 
 
Ответить
Loading...
Error