Адрес РуТрекера для пользователей РФ - 11.MainTracker.org

Расскажи друзьям:  

Веном / Venom (Рубен Фляйшер / Ruben Fleischer) [2018, США, ужасы, фантастика, боевик, триллер, UHD BDRemux 2160p] Dub + MVO + VO + Original (Eng) + Sub (Rus, Eng)

Страницы:  1

Ответить
Автор
Сообщение

arxivariys

Top Best

Стаж: 9 лет 10 месяцев

Сообщений: 2010

arxivariys · 05-Янв-19 12:41 (6 месяцев назад, ред. 19-Янв-19 00:04)

Веном / Venom


Страна: США
Студия: Columbia Pictures Corporation, Marvel Entertainment, Pascal Pictures
Жанр: ужасы, фантастика, боевик, триллер
Год выпуска: 2018
Продолжительность: 01:52:08

Перевод 1: Профессиональный (дублированный) Blu-Ray
Перевод 2: Любительский (многоголосый закадровый) HDRezka Studio
Перевод 3: Одноголосый закадровый Д. Есарев
Субтитры: русские (forced, full, FOCS), английские (full, SDH, SDH-Colored)
Оригинальная аудиодорожка: английский

Режиссер: Рубен Фляйшер / Ruben Fleischer
В ролях: Том Харди, Мишель Уильямс, Марчелла Браджио, Вуди Харрельсон, Дженни Слейт, Риз Ахмед, Мак Брандт, Рон Сепас Джонс, Мишель Ли, Мелора Уолтерс

Описание: Что если в один прекрасный день в тебя вселяется существо-симбиот, которое наделяет тебя сверхчеловеческими способностями? Вот только Веном — симбиот совсем недобрый, и договориться с ним невозможно. Хотя нужно ли договариваться?.. Ведь в какой-то момент ты понимаешь, что быть плохим вовсе не так уж и плохо. Так даже веселее. В мире и так слишком много супергероев! Мы — Веном!

imdb | kinopoisk | Сэмпл

Тип релиза: UHD BDRemux 2160p [Venom 2018 2160p UHD Blu-ray HEVC TrueHD 7.1-BeyondHD]
Контейнер: MKV
Видео: MPEG-H HEVC Video / 53456 kbps / 3840x2160 / 23.976 fps / 16:9 / Main 10 Profile 5.1 High / 4:2:0 / 10 bits / HDR / BT.2020 /
Аудио 1: Russian AC3 / 5.1 / 48 kHz / 640 kbps / 16-bit |Dub, Blu-Ray|
Аудио 2: Russian AC3 / 2.0 / 48 kHz / 192 kbps / 16-bit |MVO, HDRezka Studio|
Аудио 3: Russian DTS-HD Master Audio / 7.1 / 48 kHz / 4453 kbps / 24-bit (DTS Core: 5.1 / 48 kHz / 1509 kbps / 24-bit) |Д. Есарев|
Аудио 4: English Dolby TrueHD/Atmos Audio / 7.1-Atmos / 48 kHz / 3852 kbps / 24-bit |original|
Аудио 5: English AC3 Core: 5.1 / 48 kHz / 640 kbps |original|
Формат субтитров: softsub [SRT]
MediaInfo
Код:
Общее
Уникальный идентификатор                 : 32113128730762438126851472218896848245 (0x1828C37CCCEA4E4316D9F5F8DA6DD575)
Полное имя                               : H:\UHD\Веном.2018.UHD.Blu-Ray.Remux.2160p.mkv
Формат                                   : Matroska
Версия формата                           : Version 4
Размер файла                             : 49,1 Гбайт
Продолжительность                        : 1 ч. 52 м.
Режим общего битрейта                    : Переменный
Общий поток                              : 62,7 Мбит/сек
Дата кодирования                         : UTC 2019-01-05 09:34:21
Программа кодирования                    : mkvmerge v30.0.0 ('Interstellar') 64-bit
Библиотека кодирования                   : libebml v1.3.6 + libmatroska v1.4.9
Attachments                              : poster.jpg
Видео
Идентификатор                            : 1
Формат                                   : HEVC
Формат/Информация                        : High Efficiency Video Coding
Коммерческое название                    : HDR10
Профиль формата                          : Main [email protected]@High
Идентификатор кодека                     : V_MPEGH/ISO/HEVC
Продолжительность                        : 1 ч. 52 м.
Битрейт                                  : 53,5 Мбит/сек
Ширина                                   : 3840 пикселей
Высота                                   : 2160 пикселей
Соотношение сторон                       : 16:9
Режим частоты кадров                     : Постоянный
Частота кадров                           : 23,976 (24000/1001) кадра/сек
Цветовое пространство                    : YUV
Субдискретизация насыщенности            : 4:2:0 (Type 2)
Битовая глубина                          : 10 бит
Бит/(Пиксели*Кадры)                      : 0.269
Размер потока                            : 41,9 Гбайт (85%)
Default                                  : Да
Forced                                   : Нет
Цветовой диапазон                        : Limited
Основные цвета                           : BT.2020
Характеристики трансфера                 : PQ
Коэффициенты матрицы                     : BT.2020 non-constant
MasteringDisplay_ColorPrimaries          : Display P3
MasteringDisplay_Luminance               : min: 0.0050 cd/m2, max: 4000 cd/m2
MaxCLL                                   : 3903 cd/m2
MaxFALL                                  : 1076 cd/m2
Аудио #1
Идентификатор                            : 2
Формат                                   : AC-3
Формат/Информация                        : Audio Coding 3
Коммерческое название                    : Dolby Digital
Идентификатор кодека                     : A_AC3
Продолжительность                        : 1 ч. 52 м.
Вид битрейта                             : Постоянный
Битрейт                                  : 640 Кбит/сек
Каналы                                   : 6 каналов
Channel layout                           : L R C LFE Ls Rs
Частота                                  : 48,0 КГц
Частота кадров                           : 31,250 кадров/сек (1536 SPF)
Битовая глубина                          : 16 бит
Метод сжатия                             : С потерями
Размер потока                            : 513 Мбайт (1%)
Заголовок                                : Dub, Blu-Ray
Язык                                     : Russian
ServiceKind/String                       : Complete Main
Default                                  : Да
Forced                                   : Нет
Аудио #2
Идентификатор                            : 3
Формат                                   : AC-3
Формат/Информация                        : Audio Coding 3
Коммерческое название                    : Dolby Digital
Идентификатор кодека                     : A_AC3
Продолжительность                        : 1 ч. 52 м.
Вид битрейта                             : Постоянный
Битрейт                                  : 192 Кбит/сек
Каналы                                   : 2 канала
Channel layout                           : L R
Частота                                  : 48,0 КГц
Частота кадров                           : 31,250 кадров/сек (1536 SPF)
Битовая глубина                          : 16 бит
Метод сжатия                             : С потерями
Размер потока                            : 154 Мбайт (0%)
Заголовок                                : MVO, HDRezka Studio
Язык                                     : Russian
ServiceKind/String                       : Complete Main
Default                                  : Нет
Forced                                   : Нет
Аудио #3
Идентификатор                            : 4
Формат                                   : DTS XLL
Формат/Информация                        : Digital Theater Systems
Коммерческое название                    : DTS-HD Master Audio
Идентификатор кодека                     : A_DTS
Продолжительность                        : 1 ч. 52 м.
Вид битрейта                             : Переменный
Битрейт                                  : 4453 Кбит/сек
Каналы                                   : 8 каналов
Channel layout                           : C L R LFE Lb Rb Lss Rss
Частота                                  : 48,0 КГц
Частота кадров                           : 93,750 кадра/сек (512 SPF)
Битовая глубина                          : 24 бит
Метод сжатия                             : Без потерь
Размер потока                            : 3,49 Гбайт (7%)
Заголовок                                : Д. Есарев
Язык                                     : Russian
Default                                  : Нет
Forced                                   : Нет
Аудио #4
Идентификатор                            : 5
Формат                                   : MLP FBA 16-ch
Формат/Информация                        : Meridian Lossless Packing FBA with 16-channel presentation
Коммерческое название                    : Dolby TrueHD with Dolby Atmos
Идентификатор кодека                     : A_TRUEHD
Продолжительность                        : 1 ч. 52 м.
Вид битрейта                             : Переменный
Битрейт                                  : 3212 Кбит/сек
Максимальный битрейт                     : 5394 Кбит/сек
Каналы                                   : 8 каналов
Channel layout                           : L R C LFE Ls Rs Lb Rb
Частота                                  : 48,0 КГц
Частота кадров                           : 1200,000 кадров/сек (40 SPF)
Метод сжатия                             : Без потерь
Размер потока                            : 2,52 Гбайт (5%)
Язык                                     : English
Default                                  : Нет
Forced                                   : Нет
Number of dynamic objects                : 11
Bed channel count                        : 1 канал
Bed channel configuration                : LFE
Аудио #5
Идентификатор                            : 6
Формат                                   : AC-3
Формат/Информация                        : Audio Coding 3
Коммерческое название                    : Dolby Digital
Идентификатор кодека                     : A_AC3
Продолжительность                        : 1 ч. 52 м.
Вид битрейта                             : Постоянный
Битрейт                                  : 640 Кбит/сек
Каналы                                   : 6 каналов
Channel layout                           : L R C LFE Ls Rs
Частота                                  : 48,0 КГц
Частота кадров                           : 31,250 кадров/сек (1536 SPF)
Битовая глубина                          : 16 бит
Метод сжатия                             : С потерями
Размер потока                            : 513 Мбайт (1%)
Язык                                     : English
ServiceKind/String                       : Complete Main
Default                                  : Нет
Forced                                   : Нет
Текст #1
Идентификатор                            : 7
Формат                                   : UTF-8
Идентификатор кодека                     : S_TEXT/UTF8
Идентификатор кодека/Информация          : UTF-8 Plain Text
Продолжительность                        : 1 ч. 49 м.
Битрейт                                  : 0 бит/сек
ElementCount                             : 7
Размер потока                            : 209 байт (0%)
Заголовок                                : forced
Язык                                     : Russian
Default                                  : Да
Forced                                   : Нет
Текст #2
Идентификатор                            : 8
Формат                                   : UTF-8
Идентификатор кодека                     : S_TEXT/UTF8
Идентификатор кодека/Информация          : UTF-8 Plain Text
Продолжительность                        : 1 ч. 50 м.
Битрейт                                  : 75 бит/сек
ElementCount                             : 1218
Размер потока                            : 61,0 Кбайт (0%)
Заголовок                                : full
Язык                                     : Russian
Default                                  : Нет
Forced                                   : Нет
Текст #3
Идентификатор                            : 9
Формат                                   : UTF-8
Идентификатор кодека                     : S_TEXT/UTF8
Идентификатор кодека/Информация          : UTF-8 Plain Text
Продолжительность                        : 1 ч. 35 м.
Битрейт                                  : 99 бит/сек
ElementCount                             : 1336
Размер потока                            : 69,5 Кбайт (0%)
Заголовок                                : FOCS
Язык                                     : Russian
Default                                  : Нет
Forced                                   : Нет
Текст #4
Идентификатор                            : 10
Формат                                   : UTF-8
Идентификатор кодека                     : S_TEXT/UTF8
Идентификатор кодека/Информация          : UTF-8 Plain Text
Продолжительность                        : 1 ч. 49 м.
Битрейт                                  : 55 бит/сек
ElementCount                             : 1351
Размер потока                            : 44,2 Кбайт (0%)
Заголовок                                : full
Язык                                     : English
Default                                  : Нет
Forced                                   : Нет
Текст #5
Идентификатор                            : 11
Формат                                   : UTF-8
Идентификатор кодека                     : S_TEXT/UTF8
Идентификатор кодека/Информация          : UTF-8 Plain Text
Продолжительность                        : 1 ч. 49 м.
Битрейт                                  : 72 бит/сек
ElementCount                             : 1837
Размер потока                            : 58,3 Кбайт (0%)
Заголовок                                : SDH
Язык                                     : English
Default                                  : Нет
Forced                                   : Нет
Текст #6
Идентификатор                            : 12
Формат                                   : UTF-8
Идентификатор кодека                     : S_TEXT/UTF8
Идентификатор кодека/Информация          : UTF-8 Plain Text
Продолжительность                        : 1 ч. 49 м.
Битрейт                                  : 102 бит/сек
ElementCount                             : 1838
Размер потока                            : 82,0 Кбайт (0%)
Заголовок                                : SDH-Colored
Язык                                     : English
Default                                  : Нет
Forced                                   : Нет
Меню
00:00:00.000                             : :Chapter 01
00:04:43.199                             : :Chapter 02
00:10:58.074                             : :Chapter 03
00:17:34.928                             : :Chapter 04
00:24:05.485                             : :Chapter 05
00:32:18.811                             : :Chapter 06
00:40:07.446                             : :Chapter 07
00:46:51.975                             : :Chapter 08
00:53:26.203                             : :Chapter 09
01:00:57.070                             : :Chapter 10
01:04:01.796                             : :Chapter 11
01:08:36.445                             : :Chapter 12
01:11:12.851                             : :Chapter 13
01:14:15.742                             : :Chapter 14
01:21:18.748                             : :Chapter 15
01:27:15.021                             : :Chapter 16
Скриншоты
Download
Чтобы скачать .torrent файл необходима регистрация
Сайт не распространяет и не хранит электронные версии произведений, а лишь предоставляет доступ к создаваемому пользователями каталогу ссылок на торрент-файлы, которые содержат только списки хеш-сумм
[Профиль]  [ЛС] 
 

bot · 05-Янв-19 13:26 (спустя 44 мин.)

Тема была перенесена из форума Оформление раздач (Группа "Top Seed") в форум HD Video
arxivariys
 

Алексей Седов

Стаж: 11 лет 6 месяцев

Сообщений: 27

Алексей Седов · 15-Янв-19 20:17 (спустя 10 дней)

В этой раздаче нет второго видеопотока для Dolby Vision в отличие от этой раздачи http://1.maintracker.org/forum/viewtopic.php?t=5663722, основной видеопоток , судя по битрейту тот же.
Но есть еще одна многоголоска, на мой взгляд не нужная, и форсированные субтитры + другой контейнер.
[Профиль]  [ЛС] 

fed-maniac

Стаж: 5 лет 11 месяцев

Сообщений: 6


fed-maniac · 25-Янв-19 22:22 (спустя 10 дней)

Алексей Седов Эту раздачу можно хоть по телевизору посмотреть т к MKV в отличии от той, непонятно кому нужной.
[Профиль]  [ЛС] 

vlad_filenko

Стаж: 7 лет 3 месяца

Сообщений: 15

vlad_filenko · 11-Фев-19 10:56 (спустя 16 дней)

fed-maniac писал(а):
76741507Алексей Седов Эту раздачу можно хоть по телевизору посмотреть т к MKV в отличии от той, непонятно кому нужной.
смотря какой телевизор, на моём и BDMV можно смотреть!
[Профиль]  [ЛС] 

robocop1984

Стаж: 1 год 2 месяца

Сообщений: 6

robocop1984 · 11-Фев-19 16:59 (спустя 6 часов)

Телевизоры 2018 года выпуска не поддерживают кодеки Xvid и Divx
[Профиль]  [ЛС] 

Remixes12345

Стаж: 6 лет 10 месяцев

Сообщений: 145


Remixes12345 · 16-Фев-19 09:11 (спустя 4 дня)

vlad_filenko писал(а):
76845557
fed-maniac писал(а):
76741507Алексей Седов Эту раздачу можно хоть по телевизору посмотреть т к MKV в отличии от той, непонятно кому нужной.
смотря какой телевизор, на моём и BDMV можно смотреть!
А какой у Вас ТВ?)
[Профиль]  [ЛС] 

Oleg_kmv

Стаж: 10 лет 5 месяцев

Сообщений: 6


Oleg_kmv · 19-Фев-19 23:16 (спустя 3 дня)

На 4k телеке жуткие лаги и тормоза, причем во всех плеерах, на компе кстати тоже
[Профиль]  [ЛС] 

okyu

Стаж: 9 лет 3 месяца

Сообщений: 169

okyu · 09-Мар-19 08:34 (спустя 17 дней)

Oleg_kmv писал(а):
76895306На 4k телеке жуткие лаги и тормоза, причем во всех плеерах, на компе кстати тоже
На компе полёт нормальный.
[Профиль]  [ЛС] 

doctorgloww

Стаж: 4 года 8 месяцев

Сообщений: 1


doctorgloww · 10-Мар-19 15:06 (спустя 1 день 6 часов)

черный экран и звук только. дизлайк
[Профиль]  [ЛС] 

sebast

Стаж: 10 лет 8 месяцев

Сообщений: 8


sebast · 11-Мар-19 02:14 (спустя 11 часов)

смотрел на samsung MU6500 с жесткого диска. Всё отлично. А Фильм так себе...
[Профиль]  [ЛС] 

diandmitron

Стаж: 8 лет 3 месяца

Сообщений: 84

diandmitron · 17-Мар-19 10:49 (спустя 6 дней)

марвелу своего шлака мало еще вползает ко всем
[Профиль]  [ЛС] 

bot · 05-Апр-19 22:26 (спустя 19 дней)

Тема была перенесена из форума HD Video в форум UHD Video
porvaliparus
 

asusa651

Стаж: 9 лет

Сообщений: 5


asusa651 · 27-Апр-19 22:15 (спустя 1 месяц 10 дней)

Почему нет скорости ?
[Профиль]  [ЛС] 

nikitakurbanov

Стаж: 9 лет 8 месяцев

Сообщений: 4


nikitakurbanov · 02-Июн-19 10:48 (спустя 1 месяц 4 дня)

Oleg_kmv писал(а):
76895306На 4k телеке жуткие лаги и тормоза, причем во всех плеерах, на компе кстати тоже
Ага, смотреть практически невозможно. Телек 4к, новый, прошивка последняя. Смотреть невозможно
[Профиль]  [ЛС] 

Ambiguity_Captive

Стаж: 10 лет 5 месяцев

Сообщений: 79

Ambiguity_Captive · 20-Июн-19 19:09 (спустя 18 дней)

Оффтоп вопрос - на трекере нет меток HDR для поиска, случаем?
[Профиль]  [ЛС] 

viconvis

Стаж: 9 лет 1 месяц

Сообщений: 1


viconvis · 02-Июл-19 10:22 (спустя 11 дней)

Смотрел на Minix NEO u9-h с MX player. Все замечательно.
[Профиль]  [ЛС] 

Dgeb55

Стаж: 10 лет 4 месяца

Сообщений: 25

Dgeb55 · 02-Июл-19 17:27 (спустя 7 часов)

Вопрос про PS4Pro? как на нем 4к фильмы по 50гб идут?
[Профиль]  [ЛС] 
 
Ответить
Loading...
Error