Адрес РуТрекера для пользователей РФ - 11.MainTracker.org

Расскажи друзьям:  

Морские дьяволы: Северные рубежи / Серии: 1-20 из 20 (Александр Картохин, Максим Бриус) [2017, Боевик, военный, приключения, HDTVRip 1080p]

Страницы:  1

Ответить
Автор
Сообщение

еrzsеbet

Releaser

Стаж: 3 года 7 месяцев

Сообщений: 639

еrzsеbet · 07-Янв-19 13:45 (2 месяца 14 дней назад)

Морские дьяволы. Северные рубежи
Год выпуска: 2017
Производство: Компания «Гамма продакшн»
Жанр: Боевик, военный, приключения
Продолжительность: 00:45:00
Субтитры: нет
Режиссёр: Александр Картохин, Максим Бриус
В ролях: Олег Чернов, Дарья Юргенс, Иван Паршин, Антон Гуляев, Александра Большакова, Антон Падерин, Антон Багров, Виталий Бисеров, Евгения Любимова, Марина Доможирова, Никита Плащевский, Антон Ветров, Юлия Скороход, Мария Русских, Александр Конев
Описание: Продолжение популярной многосерийной франшизы «Морские дьяволы» в актуализированном виде – спецподразделение выполняет непростые задачи в суровых условиях на северной границе России. Официально, спецподразделение теперь называется – «Нерпы». Сама группа набирается из профессионалов возрастом около 35 лет. Батя, Багира и Бизон выполняют в сериале командно-тактические функции, хотя иногда и оказываются на острие действия. Офицеры группы спецназа «Нерпы» стоят на страже спокойствия и порядка северных рубежей страны в приграничном портовом городе, на берегу одного их северных морей. Они борются со злом во всех его проявлениях. «Нерпы» не только охраняют Северный рубеж государства, но и охотятся за диверсантами, предателями родины, обезвреживают иностранные специальные подразделения. Герои сражаются с контрабандистами и обеспечивают безопасность важных свидетелей. Освобождают заложников, обеспечивают безопасность глубоководных экспедиций и исследований, пресекают попытки уничтожения нефтедобывающей платформы, обезвреживают врагов при попытке дискредитации круглогодичного Северного морского пути и мн. др. В общем, самые сложные, самые опасные и непредсказуемые задания – это то, чем они занимаются изо дня в день.
Все раздачи сериала / Сэмпл
Автор релиза: Nikolspup
Качество: HDTVRip 1080p
Формат: MKV
Видео кодек: H.264
Аудио кодек: AC3
Видео: 1920х1080 (16:9), 25 fps, AVC MPEG-4 (x264), [email protected] ~ 6000 kbps avg, 0.116 bit/pixel
Аудио: 48 kHz, AC3, 2 ch, 192 kbps avg
Реклама: Нет
MI
Общее
Уникальный идентификатор : 177146172830106299172951976025314801235 (0x85451CA41547D62E887E2EFA0DA3B653)
Полное имя : L:\Torrents\Morskie.djavoly.Severnye.rubezhi.2017.WEB-DL.(1080p).Nikolspup\Morskie.djavoly.Severnye.rubezhi.(01.seriya.iz.20).2017.WEB-DL.(1080p).Nikolspup.mkv
Формат : Matroska
Версия формата : Version 4 / Version 2
Размер файла : 2,10 Гбайт
Продолжительность : 48 м. 49 с.
Режим общего битрейта : Постоянный
Общий поток : 6157 Кбит/сек
Дата кодирования : UTC 2017-09-23 17:02:11
Программа кодирования : mkvmerge v7.8.0 ('River Man') 32bit built on Apr 3 2015 12:11:22
Библиотека кодирования : libebml v1.3.1 + libmatroska v1.4.2
Видео
Идентификатор : 1
Формат : AVC
Формат/Информация : Advanced Video Codec
Профиль формата : [email protected]
Настройки формата : CABAC / 2 Ref Frames
Параметр CABAC формата : Да
Параметр RefFrames формата : 2 кадра
Параметр GOP формата : M=3, N=50
Идентификатор кодека : V_MPEG4/ISO/AVC
Продолжительность : 48 м. 49 с.
Вид битрейта : Постоянный
Битрейт : 6000 Кбит/сек
Ширина : 1920 пикселей
Высота : 1080 пикселей
Соотношение сторон : 16:9
Режим частоты кадров : Постоянный
Частота кадров : 25,000 кадров/сек
Стандарт вещания : PAL
Цветовое пространство : YUV
Субдискретизация насыщенности : 4:2:0
Битовая глубина : 8 бит
Тип развёртки : Прогрессивная
Бит/(Пиксели*Кадры) : 0.116
Размер потока : 2,03 Гбайт (97%)
Default : Нет
Forced : Нет
Цветовой диапазон : Limited
Основные цвета : BT.709
Характеристики трансфера : BT.709
Коэффициенты матрицы : BT.709
Аудио
Идентификатор : 2
Формат : AC-3
Формат/Информация : Audio Coding 3
Идентификатор кодека : A_AC3
Продолжительность : 48 м. 49 с.
Вид битрейта : Постоянный
Битрейт : 192 Кбит/сек
Каналы : 2 канала
Расположение каналов : Front: L R
Частота : 48,0 КГц
Частота кадров : 31,250 кадров/сек (1536 SPF)
Битовая глубина : 16 бит
Метод сжатия : С потерями
Размер потока : 67,1 Мбайт (3%)
Язык : Russian
ServiceKind/String : Complete Main
Default : Да
Forced : Да
Скриншоты
Download
Чтобы скачать .torrent файл необходима регистрация
Сайт не распространяет и не хранит электронные версии произведений, а лишь предоставляет доступ к создаваемому пользователями каталогу ссылок на торрент-файлы, которые содержат только списки хеш-сумм
[Профиль]  [ЛС] 
 

bot · 07-Янв-19 21:58 (спустя 8 часов)

Тема была перенесена из форума Русские сериалы в форум Морские дьяволы
Сударыня
 

еrzsеbet

Releaser

Стаж: 3 года 7 месяцев

Сообщений: 639

еrzsеbet · 09-Янв-19 02:32 (спустя 1 день 12 часов)

[Цитировать] 

на полчаса исчезну, извинения всем за неудобства, мне пк срочно разобрать нужно просто
пысы здесь имелась скрытая реклама поэтому пришлось убить живой мультитрекер, так бы не садировал вас двое суток раздавая
[Профиль]  [ЛС] 

Сударыня

Moderator

Стаж: 11 лет 11 месяцев

Сообщений: 11373

Сударыня · 09-Янв-19 17:22 (спустя 14 часов)

[Цитировать] 

еrzsеbet писал(а):
76639480здесь имелась скрытая реклама
Тут присутствует реклама?
[Профиль]  [ЛС] 

еrzsеbet

Releaser

Стаж: 3 года 7 месяцев

Сообщений: 639

еrzsеbet · 09-Янв-19 23:39 (спустя 6 часов)

[Цитировать] 

Цитата:
Тут присутствует реклама?
нет, не присутствует
я видео не трогал, даже названия не трогал, торрент файлу хеш ему убил, он бит спиритом по моему был сделан изначально с запрещением изменения а публишеры имели изначальную рекламу трекера где постит Nikolspup
[Профиль]  [ЛС] 

Сударыня

Moderator

Стаж: 11 лет 11 месяцев

Сообщений: 11373

Сударыня · 09-Янв-19 23:42 (спустя 3 мин.)

[Цитировать] 

еrzsеbet писал(а):
76644405нет, не присутствует
Ясно.
[Профиль]  [ЛС] 

еrzsеbet

Releaser

Стаж: 3 года 7 месяцев

Сообщений: 639

еrzsеbet · 09-Янв-19 23:44 (спустя 1 мин.)

[Цитировать] 

Доброго вечера
[Профиль]  [ЛС] 

Сударыня

Moderator

Стаж: 11 лет 11 месяцев

Сообщений: 11373

Сударыня · 10-Янв-19 00:43 (спустя 59 мин.)

[Цитировать] 

еrzsеbet писал(а):
76644426Доброго вечера
Доброго
[Профиль]  [ЛС] 

DannyMaer

Стаж: 5 месяцев 9 дней

Сообщений: 1


DannyMaer · 25-Фев-19 07:08 (спустя 1 месяц 15 дней)

[Цитировать] 

раздайте кто-нибудь пж, пиров ни одного
[Профиль]  [ЛС] 

еrzsеbet

Releaser

Стаж: 3 года 7 месяцев

Сообщений: 639

еrzsеbet · 26-Фев-19 00:48 (спустя 17 часов)

[Цитировать] 

DannyMaer
Месяц раздавал и снес у себя, я лично при желании не помог бы
[Профиль]  [ЛС] 
 
Ответить
Loading...
Error