Адрес РуТрекера для пользователей РФ - 11.MainTracker.org

Расскажи друзьям:  

Султан моего сердца / Kalbimin Sultanı / Серии: 1-18 из 24 (Керем Чакироглу) [2018, история, мелодрама, WEBRip 1080p]

Страницы:  1

Ответить
Автор
Сообщение

Pigy

RG Русские сериалы

Стаж: 10 лет 2 месяца

Сообщений: 4012

Pigy · 09-Янв-19 06:24 (13 дней назад, ред. 22-Янв-19 07:15)

Султан моего сердца / Kalbimin Sultanı
Год выпуска: 2018
Производство: Россия, Турция, Киностудия КИТ, Maya Productions, Global Connection International Media Group.
Жанр: история, мелодрама
Продолжительность: ~00:50:00 серия
Субтитры: нет
Режиссёр: Керем Чакироглу
В ролях: Александра Никифорова, Али Эрсан Дуру, Эмель Чольгечен, Тансель Онгель, Дмитрий Щербина, Андрей Руденский, Александр Соколовский, Олеся Фаттахова, Илья Шакунов, Бесте Кёкдемир, Тунджер Салман, Танер Румели, Бюлент Сейран
Описание: Стамбул, начало XIX века. Анна — дочь одного из чиновников, работающих в посольстве Российской империи. Она случайно знакомится с османским султаном Махмудом II. Впечатленный интеллектом и знаниями девушки, правитель приглашает ее работать учительницей его детей, но она поначалу отказывается и уступает только после того, как на нее начинает давить русский посол Дмитрий. Во время работы во дворце Анна понимает, что начинает влюбляться в Махмуда.Но она сталкивается с массой проблем, ведь дети султана не слушаются чужестранку, а обитательницы гарема воспринимают ее как соперницу. Этому есть причина: сам Махмуд тоже влюбляется в новую учительницу.

Реклама: Нет.
Кинопоиск
Все раздачи сериала
Sample
Качество: WEBRip 1080p - Getty
Формат: MKV
Видео кодек: H.264
Аудио кодек: AC3
Видео: MPEG4 AVC Video, H264, 16:9, 1920x1080, 25 fps, ~4800 kbps, 0.093 bit/pixel
Аудио: AC3 Dolby Digital, 48.0 kHz, 2/0 (L,R) ch, 192 kbps
Внимание! Раздача ведётся путём добавления новых серий
Раздача ведётся путём добавления новых серий, при каждом добавлении создаётся новый торрент. Чтобы начать докачку новой серии, пользователям необходимо сделать следующее:
- Остановить скачивание.
- Удалить старый торрент у себя из клиента (старые серии удалять не надо).
- Скачать новый торрент и запустить его у себя в клиенте вместо старого, при этом указать клиенту путь в старую папку куда и должно происходить скачивание новых серий.
Ваш клиент при этом должен произвести хеширование (проверку) старой папки (если не производит сам - помогите ему сделать это), и будет докачивать только те серии которых у вас ещё нет. Старые серии при этом не удаляются, а продолжают раздаваться!
Если вы уже удалили старые серии, то предотвратить повторную закачку старых серий можно, отжав галочку в соответствующих местах при запуске нового торрента. По возможности, желательно не удалять старые серии как можно дольше, чтобы релизер не столько продолжал раздавать старые серии, а смог сконцентрироваться на новых.
MI
General
Unique ID : 192106968997070187886665427857139944640 (0x908674D7658E03BDBFC0667EC971CCC0)
Complete name : D:\Sultan.moego.serdca.2018.WEB-DL.(1080p).Getty\Sultan.moego.serdca.e01.2018.WEB-DL.(1080p).Getty.mkv
Format : Matroska
Format version : Version 4 / Version 2
File size : 1.68 GiB
Duration : 49 min 21 s
Overall bit rate mode : Constant
Overall bit rate : 4 875 kb/s
Movie name : Sultan.moego.serdca.e01.2018.WEB-DL.(1080p).Getty
Encoded date : UTC 2019-01-08 19:24:40
Writing application : mkvmerge v7.8.0 ('River Man') 32bit built on Mar 27 2015 16:18:02
Writing library : libebml v1.3.1 + libmatroska v1.4.2
Video
ID : 1
Format : AVC
Format/Info : Advanced Video Codec
Format profile : [email protected]
Format settings : CABAC / 4 Ref Frames
Format settings, CABAC : Yes
Format settings, ReFrames : 4 frames
Codec ID : V_MPEG4/ISO/AVC
Duration : 49 min 21 s
Bit rate mode : Constant
Bit rate : 4 800 kb/s
Width : 1 920 pixels
Height : 1 080 pixels
Display aspect ratio : 16:9
Frame rate mode : Constant
Frame rate : 25.000 FPS
Color space : YUV
Chroma subsampling : 4:2:0
Bit depth : 8 bits
Scan type : Progressive
Bits/(Pixel*Frame) : 0.093
Stream size : 1.61 GiB (96%)
Default : Yes
Forced : No
Audio
ID : 2
Format : AC-3
Format/Info : Audio Coding 3
Codec ID : A_AC3
Duration : 49 min 21 s
Bit rate mode : Constant
Bit rate : 192 kb/s
Channel(s) : 2 channels
Channel positions : Front: L R
Sampling rate : 48.0 kHz
Frame rate : 31.250 FPS (1536 SPF)
Bit depth : 16 bits
Compression mode : Lossy
Stream size : 67.8 MiB (4%)
Service kind : Complete Main
Default : Yes
Forced : No
Скриншоты
Download
Чтобы скачать .torrent файл необходима регистрация
Сайт не распространяет и не хранит электронные версии произведений, а лишь предоставляет доступ к создаваемому пользователями каталогу ссылок на торрент-файлы, которые содержат только списки хеш-сумм
[Профиль]  [ЛС] 
 

Ахеронище

Стаж: 8 лет 9 месяцев

Сообщений: 38


Ахеронище · 09-Янв-19 09:19 (спустя 2 часа 54 мин.)

[Цитировать] 

Сюжет напоминает фильм американский "Анна и король" с Джоди Фостер.
[Профиль]  [ЛС] 

Denebola25

Стаж: 7 лет 2 месяца

Сообщений: 115


Denebola25 · 09-Янв-19 14:10 (спустя 4 часа)

[Цитировать] 

Ахеронище писал(а):
76640133Сюжет напоминает фильм американский "Анна и король" с Джоди Фостер.
тоже вспомнился схожий сюжет, только забыла, как тот фильм назывался
[Профиль]  [ЛС] 

Pigy

RG Русские сериалы

Стаж: 10 лет 2 месяца

Сообщений: 4012

Pigy · 12-Янв-19 02:23 (спустя 2 дня 12 часов, ред. 12-Янв-19 02:23)

[Цитировать] 

Добавлены 3-4 серии.

На трекере имеются две версии этого сериала российская 24-серийная версия и турецкая 8-серийная.
Обещают что в российской версии будет другой финал и будут добавлены 2-3 дополнительные серии. Это может примерно подсчитать. В турецкой версии серия идет примерно 2 часа 7 минут = 127 минут, или все 8 серий = 1016 минут, в российской версии серия идет 50 минут, значит 24 серии это 1200 минут. Получается если покажут все 24 серии, то разница с турецкой версией будет примерно 184 минуты, то есть 3 часа. Так что кому понравилась турецкая версия могут посмотреть и альтернативную российскую версию с другим финалом и дополнительными 3 часами нового материала.
По этой ссылке Все раздачи сериала можно увидеть все раздачи сериала обеих версий. Отличить версию сериала можно по количеству заявленных серий. Турецкая - 8 серий, российская - 24 серии.
Всем приятного просмотра.

Добавлены 5-6 серии.
Добавлены 7-8 серии.
[Профиль]  [ЛС] 

Pigy

RG Русские сериалы

Стаж: 10 лет 2 месяца

Сообщений: 4012

Pigy · 15-Янв-19 04:57 (спустя 3 дня)

[Цитировать] 

Добавлены 9-10 серии.
[Профиль]  [ЛС] 

Vetkinmir

Стаж: 1 год 2 месяца

Сообщений: 8


Vetkinmir · 15-Янв-19 07:33 (спустя 2 часа 35 мин.)

[Цитировать] 

Я никогда не смотрел сериалы, а в этот сериал просто влюбился)
[Профиль]  [ЛС] 

Noar

Стаж: 8 лет 5 месяцев

Сообщений: 30


Noar · 15-Янв-19 19:45 (спустя 12 часов, ред. 15-Янв-19 19:45)

[Цитировать] 

почему не указан перевод? Великолепный век те же самые люди озвучивали, а тут озвучка вообще не указана.
[Профиль]  [ЛС] 

Pigy

RG Русские сериалы

Стаж: 10 лет 2 месяца

Сообщений: 4012

Pigy · 18-Янв-19 08:15 (спустя 2 дня 12 часов, ред. 18-Янв-19 08:15)

[Цитировать] 

Добавлены 11-12 серии.
Добавлены 13-14 серии.
Добавлены 15-16 серии.
[Профиль]  [ЛС] 

Crush-91

Стаж: 7 лет 1 месяц

Сообщений: 29


Crush-91 · 22-Янв-19 06:49 (спустя 3 дня)

[Цитировать] 

добавьте пожалуйста 17-18 серии
[Профиль]  [ЛС] 

Pigy

RG Русские сериалы

Стаж: 10 лет 2 месяца

Сообщений: 4012

Pigy · 22-Янв-19 07:16 (спустя 27 мин.)

[Цитировать] 

Добавлены 17-18 серии.
[Профиль]  [ЛС] 
 
Ответить
Loading...
Error