Адрес РуТрекера для пользователей РФ - 11.MainTracker.org

Расскажи друзьям:  

Воронины / Сезон: 23 / Серии: 1-16 из ? (Александр Жигалкин, Леонид Коновалов (II), Алексей Кирющенко) [2019, Комедия, семейный, SATRip]

Страницы:  1

Ответить
Автор
Сообщение

Сибиряк777

Top Seed 05* 640r

Стаж: 10 лет 5 месяцев

Сообщений: 3168

Сибиряк777 · 04-Фев-19 16:31 (17 дней назад, ред. 15-Фев-19 02:18)

Воронины
Год выпуска: 2019
Производство: «ГудСториМедиа», «Леан-М», СТС
Жанр: Комедия, семейный
Продолжительность: 00:24:00
Субтитры: нет
Режиссёр: Александр Жигалкин, Леонид Коновалов (II), Алексей Кирющенко
В ролях: Георгий Дронов, Екатерина Волкова (II), Анна Фроловцева, Борис Клюев, Станислав Дужников, Юлия Куварзина, Мария Ильюхина, Кирилл Михин, Филипп Михин, Людмила Дмитриева, Андрей Ургант, Татьяна Орлова
Описание: В новых сериях в многодетной семье Кости и Веры Ворониных появляется четвертый ребенок. Теперь, кроме старшей дочки Маши, близнецов Кири и Фили, они воспитывают новорожденную Люсю. Ворониных станет еще больше, а значит - в семье прибавится хлопот. В премьерных сериях приключения любимых персонажей Кости, Веры, Лени, Насти, Галины Ивановны и Николая Петровича не ограничатся пределами их квартир. Создатели придумали еще больше ситуаций, когда мужчины Воронины встают с дивана и отправляются на интересные прогулки. Сюрпризом для зрителей станет появление в проекте звезд в роли самих себя. Так, в одной из серий снялся известный певец, а теперь и телеведущий шоу СТС «Большая маленькая звезда» Николай Басков.
Сэмпл: http://multi-up.com/1222669
Релиз группа:
Качество: SATRip
Формат: AVI
Видео кодек: XviD
Аудио кодек: AC3
Видео: 720x400 (16:9), 25.000 fps, XviD build 73, 1589 Kbps, 0.22 Bits/Pixel
Аудио: 48 kHz, AC3 Dolby Digital, 2 ch, 192 Kbps
Реклама: Нет
MI
General
Complete name : Downloads\Voroniny.23.2018.SATRiip.Files-x\01.Voroniny.23.2018.SATRiip.Files-x.avi
Format : AVI
Format/Info : Audio Video Interleave
File size : 302 MiB
Duration : 23mn 34s
Overall bit rate : 1 791 Kbps
Writing application : VirtualDubMod 1.5.10.3 | www.virtualdub-fr.org || (build 2550/release)
Writing library : VirtualDubMod build 2550/release
Video #0
ID : 0
Format : MPEG-4 Visual
Format profile : Advanced [email protected]
Format settings, BVOP : 1
Format settings, QPel : No
Format settings, GMC : No warppoints
Format settings, Matrix : Custom
Codec ID : XVID
Codec ID/Hint : XviD
Duration : 23mn 34s
Bit rate : 1 589 Kbps
Width : 720 pixels
Height : 400 pixels
Display aspect ratio : 16:9
Frame rate : 25.000 fps
Color space : YUV
Chroma subsampling : 4:2:0
Bit depth : 8 bits
Scan type : Progressive
Compression mode : Lossy
Bits/(Pixel*Frame) : 0.221
Stream size : 268 MiB (89%)
Writing library : XviD 73
Audio #1
ID : 1
Format : AC-3
Format/Info : Audio Coding 3
Mode extension : CM (complete main)
Format settings, Endianness : Big
Codec ID : 2000
Duration : 23mn 34s
Bit rate mode : Constant
Bit rate : 192 Kbps
Channel(s) : 2 channels
Channel positions : Front: L R
Sampling rate : 48.0 KHz
Bit depth : 16 bits
Compression mode : Lossy
Stream size : 32.4 MiB (11%)
Alignment : Split accross interleaves
Interleave, duration : 40 ms (1.00 video frame)
Interleave, preload duration : 500 ms
Скриншоты
Внимание! Раздача ведётся путём добавления новых серий:
(1) остановить скачивание,
(2) удалить старый торрент у себя из клиента (старые серии удалять не надо),
(3) скачать новый торрент и запустить его у себя в клиенте вместо старого, при этом указать клиенту путь в старую папку куда и должно происходить скачивание новых серий.
Ваш клиент при этом должен произвести хеширование (проверку) старой папки (если не производит сам - помогите ему сделать это), и будет докачивать только те серии которых у вас ещё нет. Старые серии при этом не удаляются, а продолжают раздаваться!
Eсли вы уже удалили старые серии, то предотвратить повторную закачку старых серий можно, отжав галочку в соответсвующих местах при запуске нового торрента. По возможности, желательно не удалять старые серии как можно дольше чтобы релизёр не столько продолжал раздавать старые серии, а смог сконцентрироваться на новых
.
Предыдущие и альтернативные раздачи
Download
Чтобы скачать .torrent файл необходима регистрация
Сайт не распространяет и не хранит электронные версии произведений, а лишь предоставляет доступ к создаваемому пользователями каталогу ссылок на торрент-файлы, которые содержат только списки хеш-сумм
[Профиль]  [ЛС] 
 

Сибиряк777

Top Seed 05* 640r

Стаж: 10 лет 5 месяцев

Сообщений: 3168

Сибиряк777 · 05-Фев-19 17:02 (спустя 1 день)

[Цитировать] 

+6
[Профиль]  [ЛС] 

valis1607

Стаж: 8 лет 9 месяцев

Сообщений: 65


valis1607 · 06-Фев-19 10:08 (спустя 17 часов)

[Цитировать] 

Сибиряк777 вернулся. Ура!!!
[Профиль]  [ЛС] 

s_ven

Стаж: 7 лет 5 месяцев

Сообщений: 5


s_ven · 06-Фев-19 11:24 (спустя 1 час 16 мин.)

[Цитировать] 

Спасибо Друг!
[Профиль]  [ЛС] 

sao89

Top Seed 02* 80r

Стаж: 10 лет 7 месяцев

Сообщений: 443

sao89 · 06-Фев-19 16:03 (спустя 4 часа)

[Цитировать] 

а получше качество будет? что-то совсем не ахти
[Профиль]  [ЛС] 

Сибиряк777

Top Seed 05* 640r

Стаж: 10 лет 5 месяцев

Сообщений: 3168

Сибиряк777 · 06-Фев-19 16:45 (спустя 42 мин.)

[Цитировать] 

sao89 писал(а):
76815768а получше качество будет? что-то совсем не ахти
Нет не будет, на данный момент качество в сети есть только такое, другого нет.
+8
[Профиль]  [ЛС] 

sao89

Top Seed 02* 80r

Стаж: 10 лет 7 месяцев

Сообщений: 443

sao89 · 07-Фев-19 16:42 (спустя 23 часа, ред. 07-Фев-19 16:42)

[Цитировать] 

Сибиряк777 писал(а):
76815993
sao89 писал(а):
76815768а получше качество будет? что-то совсем не ахти
Нет не будет, на данный момент качество в сети есть только такое, другого нет.
+8
может это связано с неправильным переходом СТС на 16:9?
[Профиль]  [ЛС] 

Сибиряк777

Top Seed 05* 640r

Стаж: 10 лет 5 месяцев

Сообщений: 3168

Сибиряк777 · 07-Фев-19 18:08 (спустя 1 час 25 мин.)

[Цитировать] 

sao89
Может быть.
На данный момент имеем то что есть, другого нема.


+10
[Профиль]  [ЛС] 

-Soldat-

Стаж: 8 лет 11 месяцев

Сообщений: 9

-Soldat- · 07-Фев-19 21:15 (спустя 3 часа)

[Цитировать] 

Сибиряк777 спасибо за раздачу! Прошлый сезон тоже у тебя качал, респект!
[Профиль]  [ЛС] 

sao89

Top Seed 02* 80r

Стаж: 10 лет 7 месяцев

Сообщений: 443

sao89 · 08-Фев-19 16:55 (спустя 19 часов)

[Цитировать] 

Сибиряк777 писал(а):
76822098sao89
Может быть.
На данный момент имеем то что есть, другого нема.


+10
За релиз в любом случае Спасибо!
[Профиль]  [ЛС] 

Bloody Face

Стаж: 10 лет 5 месяцев

Сообщений: 102

Bloody Face · 11-Фев-19 22:26 (спустя 3 дня)

[Цитировать] 

А где новые серии, или они ушли опять на перерыв в полгода?
[Профиль]  [ЛС] 

Сибиряк777

Top Seed 05* 640r

Стаж: 10 лет 5 месяцев

Сообщений: 3168

Сибиряк777 · 12-Фев-19 00:28 (спустя 2 часа 2 мин.)

[Цитировать] 

Bloody Face писал(а):
76849073А где новые серии, или они ушли опять на перерыв в полгода?
Нет, просто Автор ушёл на работу!
Пы. СЫ. на этой недели серии будут поздно выходить, так как я занят на работе.


+12
[Профиль]  [ЛС] 

Сологуб Галина

Стаж: 6 лет 8 месяцев

Сообщений: 1

Сологуб Галина · 13-Фев-19 23:09 (спустя 1 день 22 часа)

[Цитировать] 

где новые серии?13-16
[Профиль]  [ЛС] 

sao89

Top Seed 02* 80r

Стаж: 10 лет 7 месяцев

Сообщений: 443

sao89 · 14-Фев-19 17:10 (спустя 18 часов)

[Цитировать] 

у риперов качество лучше, нет этой "лесенки", но у них с рекламой...
[Профиль]  [ЛС] 

Сибиряк777

Top Seed 05* 640r

Стаж: 10 лет 5 месяцев

Сообщений: 3168

Сибиряк777 · 15-Фев-19 02:20 (спустя 9 часов)

[Цитировать] 

+16
[Профиль]  [ЛС] 
 
Ответить
Loading...
Error