Адрес РуТрекера для пользователей РФ - 11.MainTracker.org

Расскажи друзьям:  

ИП Пирогова / Серии: 1-6 из 20 (Антон Маслов) [2019, комедия, WEBRip 1080p]

Страницы:  1

Ответить
Автор
Сообщение

Pigy

RG Русские сериалы

Стаж: 10 лет 3 месяца

Сообщений: 4240

Pigy · 10-Фев-19 00:26 (12 дней назад, ред. 22-Фев-19 01:37)

ИП Пирогова
Год выпуска: 2019
Производство: СУПЕР продакшн, "Yellow, Black and White"
Жанр: комедия
Продолжительность: ~00:27:00 серия
Субтитры: нет
Режиссёр: Антон Маслов
В ролях: Елена Подкаминская, Александр Панкратов-Чёрный, Данила Дунаев, Ксения Теплова, Александр Константинов, Василина Юсковец, Елена Валюшкина
Описание: По сюжету, жизнь Веры размеренно катится по рельсам семейного счастья, пока измена мужа не заводит эти рельсы в тупик. Выставив неверного супруга из дома, Вера лишается не только доверия к мужчинам, но и средств к существованию. Тут самое время впасть в депрессию, но врожденная предприимчивость и талант к кондитерскому искусству внезапно открывают для Веры мир индивидуального предпринимательства. Оказалось, сладкий бизнес способен приносить хороший доход. Теперь вчерашней домохозяйке предстоит освоиться в роли бизнес-вумен, развить свой «сТОРТап» и заодно наладить личную жизнь.

Реклама: Нет.
Кинопоиск
Все раздачи сериала
Sample
Качество: WEBRip 1080p - Getty
Формат: MKV
Видео кодек: H.264
Аудио кодек: AC3
Видео: MPEG4 AVC Video, H264, 16:9, 1920x1080, 25 fps, ~5000 kbps, 0.096 bit/pixel
Аудио: AC3 Dolby Digital, 48.0 kHz, 2/0 (L,R) ch, 192 kbps
Внимание! Раздача ведётся путём добавления новых серий
Раздача ведётся путём добавления новых серий, при каждом добавлении создаётся новый торрент. Чтобы начать докачку новой серии, пользователям необходимо сделать следующее:
- Остановить скачивание.
- Удалить старый торрент у себя из клиента (старые серии удалять не надо).
- Скачать новый торрент и запустить его у себя в клиенте вместо старого, при этом указать клиенту путь в старую папку куда и должно происходить скачивание новых серий.
Ваш клиент при этом должен произвести хеширование (проверку) старой папки (если не производит сам - помогите ему сделать это), и будет докачивать только те серии которых у вас ещё нет. Старые серии при этом не удаляются, а продолжают раздаваться!
Если вы уже удалили старые серии, то предотвратить повторную закачку старых серий можно, отжав галочку в соответствующих местах при запуске нового торрента. По возможности, желательно не удалять старые серии как можно дольше, чтобы релизер не столько продолжал раздавать старые серии, а смог сконцентрироваться на новых.
MI
General
Unique ID : 191186610422499678104721575741259240151 (0x8FD533A906445953ABC3924FA7ABD2D7)
Complete name : D:\IP.Pirogova.2019.WEB-DL.(1080p).Getty\IP.Pirogova.e01.2019.WEB-DL.(1080p).Getty.mkv
Format : Matroska
Format version : Version 4 / Version 2
File size : 991 MiB
Duration : 26 min 52 s
Overall bit rate mode : Constant
Overall bit rate : 5 159 kb/s
Movie name : IP.Pirogova.e01.2019.WEB-DL.(1080p).Getty
Encoded date : UTC 2019-02-09 20:35:00
Writing application : mkvmerge v7.8.0 ('River Man') 32bit built on Mar 27 2015 16:18:02
Writing library : libebml v1.3.1 + libmatroska v1.4.2
Video
ID : 1
Format : AVC
Format/Info : Advanced Video Codec
Format profile : [email protected]
Format settings : 4 Ref Frames
Format settings, CABAC : No
Format settings, ReFrames : 4 frames
Codec ID : V_MPEG4/ISO/AVC
Duration : 26 min 52 s
Bit rate mode : Constant
Bit rate : 5 000 kb/s
Width : 1 920 pixels
Height : 1 080 pixels
Display aspect ratio : 16:9
Frame rate mode : Constant
Frame rate : 25.000 FPS
Standard : PAL
Color space : YUV
Chroma subsampling : 4:2:0
Bit depth : 8 bits
Scan type : Progressive
Bits/(Pixel*Frame) : 0.096
Stream size : 954 MiB (96%)
Default : Yes
Forced : No
Color range : Limited
Color primaries : BT.709
Transfer characteristics : BT.709
Matrix coefficients : BT.709
Audio
ID : 2
Format : AC-3
Format/Info : Audio Coding 3
Codec ID : A_AC3
Duration : 26 min 52 s
Bit rate mode : Constant
Bit rate : 192 kb/s
Channel(s) : 2 channels
Channel positions : Front: L R
Sampling rate : 48.0 kHz
Frame rate : 31.250 FPS (1536 SPF)
Bit depth : 16 bits
Compression mode : Lossy
Stream size : 36.9 MiB (4%)
Service kind : Complete Main
Default : Yes
Forced : No
Скриншоты
Download
Чтобы скачать .torrent файл необходима регистрация
Сайт не распространяет и не хранит электронные версии произведений, а лишь предоставляет доступ к создаваемому пользователями каталогу ссылок на торрент-файлы, которые содержат только списки хеш-сумм
[Профиль]  [ЛС] 
 

Pigy

RG Русские сериалы

Стаж: 10 лет 3 месяца

Сообщений: 4240

Pigy · 10-Фев-19 00:59 (спустя 33 мин.)

[Цитировать] 

Точное количество серий на данный момент не известно. Кинопоиск пишет что - 20, Кино-театр что 17. Так что ориентируемся примерно на это количество 17-20. На остальных более-менее авторитетных источниках включая первоисточник видео и сайт телеканала данных нет. Как информация, похожая на достоверную появится тогда и добавлю в заголовок. Поэтому пожалуйста избавьте меня и других адекватных пользователей от ссылок на левые сомнительные ресурсы.
График выхода серий тоже пока под вопросом. Вторую серию обещают только через неделю 17 февраля. Однако по ТВ его начнут показывать с 18 февраля, и если по ТВ будут показывать по серии каждый будний день, то и у нас скорость выкладки увеличится, а если будут цедить по одной серии в неделю, то и мы наверно закончим просмотр только летом.
[Профиль]  [ЛС] 

SadGamaya

Стаж: 8 лет 10 месяцев

Сообщений: 56


SadGamaya · 12-Фев-19 00:37 (спустя 1 день 23 часа)

[Цитировать] 

Сюжет есть, буксует динамика повествования. Актёры отлично играют, но персонажей мало - из-за чего частично и тормозится повествование; нужны условные "Федя с Сеней", косячный "Агузок", юморной Нагиев, пьющий винеролог, дед или шеф-повар с зависимостью к азартным играм... и т.д. Ждём персонажа Дмитрия Лысенкова и других!
Благодарю за релиз!
[Профиль]  [ЛС] 

Pigy

RG Русские сериалы

Стаж: 10 лет 3 месяца

Сообщений: 4240

Pigy · 18-Фев-19 19:49 (спустя 6 дней, ред. 18-Фев-19 19:49)

[Цитировать] 

Добавлена 2 серия.
Добавлена 3 серия.
Добавлена 4 серия.
[Профиль]  [ЛС] 

dom20

Стаж: 9 лет 10 месяцев

Сообщений: 87


dom20 · 18-Фев-19 20:38 (спустя 48 мин.)

[Цитировать] 

потихоньку сериал раскачивается
[Профиль]  [ЛС] 

Pigy

RG Русские сериалы

Стаж: 10 лет 3 месяца

Сообщений: 4240

Pigy · 22-Фев-19 01:37 (спустя 3 дня, ред. 22-Фев-19 01:37)

[Цитировать] 

Добавлена 5 серия.
Добавлена 6 серия.
[Профиль]  [ЛС] 
 
Ответить
Loading...
Error