Адрес РуТрекера для пользователей РФ - 11.MainTracker.org

Расскажи друзьям:  

ИП Пирогова / Серии: 1-6 из 20 (Антон Маслов) [2019, комедия, WEBRip 720p]

Страницы:  1

Ответить
Автор
Сообщение

Pigy

RG Русские сериалы

Стаж: 10 лет 3 месяца

Сообщений: 4240

Pigy · 10-Фев-19 15:27 (11 дней назад, ред. 22-Фев-19 07:02)

ИП Пирогова
Год выпуска: 2019
Производство: СУПЕР продакшн, "Yellow, Black and White"
Жанр: комедия
Продолжительность: ~00:27:00 серия
Субтитры: нет
Режиссёр: Антон Маслов
В ролях: Елена Подкаминская, Александр Панкратов-Чёрный, Данила Дунаев, Ксения Теплова, Александр Константинов, Василина Юсковец, Елена Валюшкина
Описание: По сюжету, жизнь Веры размеренно катится по рельсам семейного счастья, пока измена мужа не заводит эти рельсы в тупик. Выставив неверного супруга из дома, Вера лишается не только доверия к мужчинам, но и средств к существованию. Тут самое время впасть в депрессию, но врожденная предприимчивость и талант к кондитерскому искусству внезапно открывают для Веры мир индивидуального предпринимательства. Оказалось, сладкий бизнес способен приносить хороший доход. Теперь вчерашней домохозяйке предстоит освоиться в роли бизнес-вумен, развить свой «сТОРТап» и заодно наладить личную жизнь.

Реклама: Нет.
Кинопоиск
Все раздачи сериала
Sample
Качество: WEBRip 720p - ExKinoRay
Формат: MKV
Видео кодек: H.264
Аудио кодек: AC3
Видео: MPEG4 AVC Video, H264, 16:9, 1280x720, 25 fps, ~2600 kbps, 0.113 bit/pixel
Аудио: AC3, 48.0 kHz, 2/0 (L,R) ch, 192 kbps
Внимание! Раздача ведётся путём добавления новых серий
Раздача ведётся путём добавления новых серий, при каждом добавлении создаётся новый торрент. Чтобы начать докачку новой серии, пользователям необходимо сделать следующее:
- Остановить скачивание.
- Удалить старый торрент у себя из клиента (старые серии удалять не надо).
- Скачать новый торрент и запустить его у себя в клиенте вместо старого, при этом указать клиенту путь в старую папку куда и должно происходить скачивание новых серий.
Ваш клиент при этом должен произвести хеширование (проверку) старой папки (если не производит сам - помогите ему сделать это), и будет докачивать только те серии которых у вас ещё нет. Старые серии при этом не удаляются, а продолжают раздаваться!
Если вы уже удалили старые серии, то предотвратить повторную закачку старых серий можно, отжав галочку в соответствующих местах при запуске нового торрента. По возможности, желательно не удалять старые серии как можно дольше, чтобы релизер не столько продолжал раздавать старые серии, а смог сконцентрироваться на новых.
MI
General
Unique ID : 202599126881420220861987324872918919120 (0x986B2C2A0F01C0F88341A6CB011167D0)
Complete name : D:\IP.Pirogova.(2019).WEB-DL.720p.ExKinoRay\IP.Pirogova.e01.(2019).WEB-DL.720p.ExKinoRay.mkv
Format : Matroska
Format version : Version 2
File size : 533 MiB
Duration : 26 min 52 s
Overall bit rate mode : Constant
Overall bit rate : 2 774 kb/s
Encoded date : UTC 2019-02-09 22:17:28
Writing application : mkvmerge v5.8.0 ('No Sleep / Pillow') built on Sep 2 2012 15:37:04
Writing library : libebml v1.2.3 + libmatroska v1.3.0
Video
ID : 1
Format : AVC
Format/Info : Advanced Video Codec
Format profile : [email protected]
Format settings : 4 Ref Frames
Format settings, CABAC : No
Format settings, ReFrames : 4 frames
Codec ID : V_MPEG4/ISO/AVC
Duration : 26 min 52 s
Bit rate mode : Constant
Bit rate : 2 600 kb/s
Width : 1 280 pixels
Height : 720 pixels
Display aspect ratio : 16:9
Frame rate mode : Constant
Frame rate : 25.000 FPS
Standard : PAL
Color space : YUV
Chroma subsampling : 4:2:0
Bit depth : 8 bits
Scan type : Progressive
Bits/(Pixel*Frame) : 0.113
Stream size : 486 MiB (91%)
Language : Russian
Default : Yes
Forced : No
Color range : Limited
Color primaries : BT.709
Transfer characteristics : BT.709
Matrix coefficients : BT.709
Audio
ID : 2
Format : AC-3
Format/Info : Audio Coding 3
Codec ID : A_AC3
Duration : 26 min 52 s
Bit rate mode : Constant
Bit rate : 192 kb/s
Channel(s) : 2 channels
Channel positions : Front: L R
Sampling rate : 48.0 kHz
Frame rate : 31.250 FPS (1536 SPF)
Bit depth : 16 bits
Compression mode : Lossy
Stream size : 36.9 MiB (7%)
Language : Russian
Service kind : Complete Main
Default : Yes
Forced : No
Скриншоты
Download
Чтобы скачать .torrent файл необходима регистрация
Сайт не распространяет и не хранит электронные версии произведений, а лишь предоставляет доступ к создаваемому пользователями каталогу ссылок на торрент-файлы, которые содержат только списки хеш-сумм
[Профиль]  [ЛС] 
 

reachmanua

Стаж: 3 года 1 месяц

Сообщений: 26


reachmanua · 10-Фев-19 19:20 (спустя 3 часа)

[Цитировать] 

Спасибо за раздачу. По первой серии мнение. Шлак по типу "Кухня". Вообщем любителям убить время на диване под пиво, чтобы не напрягаться - наверное понравится.
[Профиль]  [ЛС] 

klaus30

Стаж: 8 лет

Сообщений: 4


klaus30 · 10-Фев-19 21:17 (спустя 1 час 56 мин.)

[Цитировать] 

где смеяться, типичное мыло, для домохозяек
[Профиль]  [ЛС] 

лазурики

Стаж: 7 лет 3 месяца

Сообщений: 127

лазурики · 11-Фев-19 00:12 (спустя 2 часа 55 мин.)

[Цитировать] 

А мне понравился. Да, снято также красиво, как "Кухня", "Отель Элеон". И музыкальное сопровождение хорошее.
[Профиль]  [ЛС] 

PaulNoma

Стаж: 11 лет 2 месяца

Сообщений: 138

PaulNoma · 11-Фев-19 13:24 (спустя 13 часов)

[Цитировать] 

Да норм "дорамка" так про "отношения". Наши могут как корейцы ведь снять красиво.
[Профиль]  [ЛС] 

dom20

Стаж: 9 лет 10 месяцев

Сообщений: 87


dom20 · 12-Фев-19 17:46 (спустя 1 день 4 часа)

[Цитировать] 

начало очень слабое. Юмора нет от слова совсем...
[Профиль]  [ЛС] 

Pigy

RG Русские сериалы

Стаж: 10 лет 3 месяца

Сообщений: 4240

Pigy · 22-Фев-19 07:02 (спустя 9 дней, ред. 22-Фев-19 07:02)

[Цитировать] 

Добавлена 2 серия.
Добавлена 3 серия.
Добавлена 4 серия.
Добавлена 5 серия.
Добавлена 6 серия.
[Профиль]  [ЛС] 
 
Ответить
Loading...
Error