Адрес РуТрекера для пользователей РФ - 11.MainTracker.org

Расскажи друзьям:  

Я знаю твои секреты / Серии: 1-4 из 4 (Андрей Верещагин) [2015, детектив, мелодрама, HDTV 1080i]

Страницы:  1

Ответить
Автор
Сообщение

ylnian

Стаж: 8 лет 5 месяцев

Сообщений: 1534

ylnian · 10-Фев-19 15:38 (11 дней назад)

Я знаю твои секреты
Производство: Студия "ПРО100 Фильм", Студия "Телемастер", Продюсерский Центр "ПРИОР продакшн"
Жанр: детектив, мелодрама
Год выпуска: 2015
Продолжительность: ~ 44:30
Субтитры: Отсутствуют
Режиссёр: Андрей Верещагин
В ролях: Агата Муцениеце, Михаил Пшеничный, Алёна Яковлева, Владислав Ветров, Вячеслав Кулаков, Сергей Галахов, Евгения Соляных, Олег Осипов (II), Вадим Андреев, Александра Булычёва, Владимир Виноградов, Сергей Гурьев, Алексей Черных, Сергей Стёпин, Александр Печенин, Иван Агапов, Виктор Рябов, Сергей Барышев, Илья Беляев, Александр Тютин, Максим Драченин
Описание: Нина – блестящий специалист по физиогномике, она безошибочно определяет, когда человек лжет. Однажды она находит в кафе паспорт мужчины с вложенным номером телефона и запиской: «Нашедшего просьба вернуть за вознаграждение». Нина звонит по этому номеру и встречается с женщиной, которая обещает передать потерянный паспорт мужу и дает Нине приличное вознаграждение. Но по ее лицу Нина видит: женщина лжет. С этого момента жизнь Нины круто меняется – загадочные злоумышленники начинают охоту на нее. Следователь Скворцов, к которому обращается героиня, поначалу принимает ее рассказ за больную фантазию, но когда преступники убивают ее бывшего жениха и похищают мать, Скворцов становится главным союзником и защитником Нины против таинственных врагов, чьему коварному плану Нине довелось случайно помешать...
Доп. информация:
Автор релиза -
Источник - HDTV 1080i TS - моя запись с канала Наш Детектив HD
Рекламы нет!
Все раздачи сериала



Качество видео: HDTV 1080i
Формат видео: TS
Видео кодек: MPEG-4
Аудио кодек 1: МР2
Аудио кодек 2: AC3
Видео: 1920x1080 (16:9), 25.000 fps, ~9100 kbps, ~ 0.176 bit/pixel
Аудио 1: 48000 Гц, 2 ch, 192 kbps
Аудио 2: 48000 Гц, 6 ch, 448 kbps
MediaInfo
Общее
Идентификатор : 1 (0x1)
Полное имя : D:\Я.знаю.твои.секреты.2015.HDTV.1080i-ylnian\Я.знаю.твои.секреты.2015.HDTV.1080i-ylnian_1.ts
Формат : MPEG-TS
Размер файла : 3,21 Гбайт
Продолжительность : 46 м. 14 с.
Режим общего битрейта : Переменный
Общий поток : 9935 Кбит/сек
Видео
Идентификатор : 3531 (0xDCB)
Идентификатор меню : 17013 (0x4275)
Формат : AVC
Формат/Информация : Advanced Video Codec
Профиль формата : [email protected]
Настройки формата : CABAC / 3 Ref Frames
Параметр CABAC формата : Да
Параметр RefFrames формата : 3 кадра
Параметр GOP формата : M=4, N=32
Идентификатор кодека : 27
Продолжительность : 46 м. 14 с.
Битрейт : 8797 Кбит/сек
Ширина : 1920 пикселей
Высота : 1080 пикселей
Соотношение сторон : 16:9
Частота кадров : 25,000 кадров/сек
Цветовое пространство : YUV
Субдискретизация насыщенности : 4:2:0
Битовая глубина : 8 бит
Тип развёртки : Чересстрочная
Метод сохранения типа развёртки : Раздельные поля
Порядок развёртки : Верхнее поле первое
Бит/(Пиксели*Кадры) : 0.170
Размер потока : 2,84 Гбайт (89%)
Цветовой диапазон : Limited
Основные цвета : BT.709
Характеристики трансфера : BT.709
Коэффициенты матрицы : BT.709
Аудио #1
Идентификатор : 3532 (0xDCC)
Идентификатор меню : 17013 (0x4275)
Формат : MPEG Audio
Версия формата : Version 1
Профиль формата : Layer 2
Идентификатор кодека : 3
Продолжительность : 46 м. 14 с.
Вид битрейта : Постоянный
Битрейт : 192 Кбит/сек
Каналы : 2 канала
Частота : 48,0 КГц
Частота кадров : 41,667 кадра/сек (1152 SPF)
Метод сжатия : С потерями
Задержка видео : -120 мс.
Размер потока : 63,5 Мбайт (2%)
Язык : Russian
Аудио #2
Идентификатор : 3533 (0xDCD)
Идентификатор меню : 17013 (0x4275)
Формат : AC-3
Формат/Информация : Audio Coding 3
Коммерческое название : Dolby Digital
Идентификатор кодека : 6
Продолжительность : 46 м. 14 с.
Вид битрейта : Постоянный
Битрейт : 448 Кбит/сек
Каналы : 6 каналов
Channel layout : L R C LFE Ls Rs
Частота : 48,0 КГц
Частота кадров : 31,250 кадров/сек (1536 SPF)
Битовая глубина : 16 бит
Метод сжатия : С потерями
Задержка видео : -120 мс.
Размер потока : 148 Мбайт (5%)
Язык : Russian
ServiceKind/String : Complete Main
Общее
Идентификатор : 1 (0x1)
Полное имя : D:\Я.знаю.твои.секреты.2015.HDTV.1080i-ylnian\Я.знаю.твои.секреты.2015.HDTV.1080i-ylnian_2.ts
Формат : MPEG-TS
Размер файла : 3,23 Гбайт
Продолжительность : 44 м. 51 с.
Режим общего битрейта : Переменный
Общий поток : 10,3 Мбит/сек
Видео
Идентификатор : 3531 (0xDCB)
Идентификатор меню : 17013 (0x4275)
Формат : AVC
Формат/Информация : Advanced Video Codec
Профиль формата : [email protected]
Настройки формата : CABAC / 3 Ref Frames
Параметр CABAC формата : Да
Параметр RefFrames формата : 3 кадра
Параметр GOP формата : M=4, N=32
Идентификатор кодека : 27
Продолжительность : 44 м. 51 с.
Битрейт : 9168 Кбит/сек
Ширина : 1920 пикселей
Высота : 1080 пикселей
Соотношение сторон : 16:9
Частота кадров : 25,000 кадров/сек
Цветовое пространство : YUV
Субдискретизация насыщенности : 4:2:0
Битовая глубина : 8 бит
Тип развёртки : Чересстрочная
Метод сохранения типа развёртки : Раздельные поля
Порядок развёртки : Верхнее поле первое
Бит/(Пиксели*Кадры) : 0.177
Размер потока : 2,87 Гбайт (89%)
Цветовой диапазон : Limited
Основные цвета : BT.709
Характеристики трансфера : BT.709
Коэффициенты матрицы : BT.709
Аудио #1
Идентификатор : 3532 (0xDCC)
Идентификатор меню : 17013 (0x4275)
Формат : MPEG Audio
Версия формата : Version 1
Профиль формата : Layer 2
Идентификатор кодека : 3
Продолжительность : 44 м. 51 с.
Вид битрейта : Постоянный
Битрейт : 192 Кбит/сек
Каналы : 2 канала
Частота : 48,0 КГц
Частота кадров : 41,667 кадра/сек (1152 SPF)
Метод сжатия : С потерями
Размер потока : 61,6 Мбайт (2%)
Язык : Russian
Аудио #2
Идентификатор : 3533 (0xDCD)
Идентификатор меню : 17013 (0x4275)
Формат : AC-3
Формат/Информация : Audio Coding 3
Коммерческое название : Dolby Digital
Идентификатор кодека : 6
Продолжительность : 44 м. 51 с.
Вид битрейта : Постоянный
Битрейт : 448 Кбит/сек
Каналы : 6 каналов
Channel layout : L R C LFE Ls Rs
Частота : 48,0 КГц
Частота кадров : 31,250 кадров/сек (1536 SPF)
Битовая глубина : 16 бит
Метод сжатия : С потерями
Размер потока : 144 Мбайт (4%)
Язык : Russian
ServiceKind/String : Complete Main
Общее
Идентификатор : 1 (0x1)
Полное имя : D:\Я.знаю.твои.секреты.2015.HDTV.1080i-ylnian\Я.знаю.твои.секреты.2015.HDTV.1080i-ylnian_3.ts
Формат : MPEG-TS
Размер файла : 3,21 Гбайт
Продолжительность : 44 м. 16 с.
Режим общего битрейта : Переменный
Общий поток : 10,4 Мбит/сек
Видео
Идентификатор : 3531 (0xDCB)
Идентификатор меню : 17013 (0x4275)
Формат : AVC
Формат/Информация : Advanced Video Codec
Профиль формата : [email protected]
Настройки формата : CABAC / 3 Ref Frames
Параметр CABAC формата : Да
Параметр RefFrames формата : 3 кадра
Параметр GOP формата : M=4, N=32
Идентификатор кодека : 27
Продолжительность : 44 м. 16 с.
Битрейт : 9227 Кбит/сек
Ширина : 1920 пикселей
Высота : 1080 пикселей
Соотношение сторон : 16:9
Частота кадров : 25,000 кадров/сек
Цветовое пространство : YUV
Субдискретизация насыщенности : 4:2:0
Битовая глубина : 8 бит
Тип развёртки : Чересстрочная
Метод сохранения типа развёртки : Раздельные поля
Порядок развёртки : Верхнее поле первое
Бит/(Пиксели*Кадры) : 0.178
Размер потока : 2,85 Гбайт (89%)
Цветовой диапазон : Limited
Основные цвета : BT.709
Характеристики трансфера : BT.709
Коэффициенты матрицы : BT.709
Аудио #1
Идентификатор : 3532 (0xDCC)
Идентификатор меню : 17013 (0x4275)
Формат : MPEG Audio
Версия формата : Version 1
Профиль формата : Layer 2
Идентификатор кодека : 3
Продолжительность : 44 м. 16 с.
Вид битрейта : Постоянный
Битрейт : 192 Кбит/сек
Каналы : 2 канала
Частота : 48,0 КГц
Частота кадров : 41,667 кадра/сек (1152 SPF)
Метод сжатия : С потерями
Задержка видео : -80 мс.
Размер потока : 60,8 Мбайт (2%)
Язык : Russian
Аудио #2
Идентификатор : 3533 (0xDCD)
Идентификатор меню : 17013 (0x4275)
Формат : AC-3
Формат/Информация : Audio Coding 3
Коммерческое название : Dolby Digital
Идентификатор кодека : 6
Продолжительность : 44 м. 16 с.
Вид битрейта : Постоянный
Битрейт : 448 Кбит/сек
Каналы : 6 каналов
Channel layout : L R C LFE Ls Rs
Частота : 48,0 КГц
Частота кадров : 31,250 кадров/сек (1536 SPF)
Битовая глубина : 16 бит
Метод сжатия : С потерями
Задержка видео : -80 мс.
Размер потока : 142 Мбайт (4%)
Язык : Russian
ServiceKind/String : Complete Main
Общее
Идентификатор : 1 (0x1)
Полное имя : D:\Я.знаю.твои.секреты.2015.HDTV.1080i-ylnian\Я.знаю.твои.секреты.2015.HDTV.1080i-ylnian_4.ts
Формат : MPEG-TS
Размер файла : 3,09 Гбайт
Продолжительность : 44 м. 4 с.
Режим общего битрейта : Переменный
Общий поток : 10,0 Мбит/сек
Видео
Идентификатор : 3531 (0xDCB)
Идентификатор меню : 17013 (0x4275)
Формат : AVC
Формат/Информация : Advanced Video Codec
Профиль формата : [email protected]
Настройки формата : CABAC / 3 Ref Frames
Параметр CABAC формата : Да
Параметр RefFrames формата : 3 кадра
Параметр GOP формата : M=4, N=32
Идентификатор кодека : 27
Продолжительность : 44 м. 3 с.
Битрейт : 8881 Кбит/сек
Ширина : 1920 пикселей
Высота : 1080 пикселей
Соотношение сторон : 16:9
Частота кадров : 25,000 кадров/сек
Цветовое пространство : YUV
Субдискретизация насыщенности : 4:2:0
Битовая глубина : 8 бит
Тип развёртки : Чересстрочная
Метод сохранения типа развёртки : Раздельные поля
Порядок развёртки : Верхнее поле первое
Бит/(Пиксели*Кадры) : 0.171
Размер потока : 2,73 Гбайт (89%)
Цветовой диапазон : Limited
Основные цвета : BT.709
Характеристики трансфера : BT.709
Коэффициенты матрицы : BT.709
Аудио #1
Идентификатор : 3532 (0xDCC)
Идентификатор меню : 17013 (0x4275)
Формат : MPEG Audio
Версия формата : Version 1
Профиль формата : Layer 2
Идентификатор кодека : 3
Продолжительность : 44 м. 4 с.
Вид битрейта : Постоянный
Битрейт : 192 Кбит/сек
Каналы : 2 канала
Частота : 48,0 КГц
Частота кадров : 41,667 кадра/сек (1152 SPF)
Метод сжатия : С потерями
Задержка видео : -80 мс.
Размер потока : 60,5 Мбайт (2%)
Язык : Russian
Аудио #2
Идентификатор : 3533 (0xDCD)
Идентификатор меню : 17013 (0x4275)
Формат : AC-3
Формат/Информация : Audio Coding 3
Коммерческое название : Dolby Digital
Идентификатор кодека : 6
Продолжительность : 44 м. 4 с.
Вид битрейта : Постоянный
Битрейт : 448 Кбит/сек
Каналы : 6 каналов
Channel layout : L R C LFE Ls Rs
Частота : 48,0 КГц
Частота кадров : 31,250 кадров/сек (1536 SPF)
Битовая глубина : 16 бит
Метод сжатия : С потерями
Задержка видео : -80 мс.
Размер потока : 141 Мбайт (4%)
Язык : Russian
ServiceKind/String : Complete Main
Download
Чтобы скачать .torrent файл необходима регистрация
Сайт не распространяет и не хранит электронные версии произведений, а лишь предоставляет доступ к создаваемому пользователями каталогу ссылок на торрент-файлы, которые содержат только списки хеш-сумм
[Профиль]  [ЛС] 
 

Tanja Dietrich

Стаж: 7 лет 1 месяц

Сообщений: 8


Tanja Dietrich · 10-Фев-19 19:28 (спустя 3 часа)

[Цитировать] 

Не получилось посмотреть фильм из-за проблемы со звуком.
[Профиль]  [ЛС] 

ylnian

Стаж: 8 лет 5 месяцев

Сообщений: 1534

ylnian · 10-Фев-19 21:15 (спустя 1 час 47 мин.)

[Цитировать] 

Tanja Dietrich писал(а):
76842330Не получилось посмотреть фильм из-за проблемы со звуком.
В чём заключается проблема? На чём смотрите?
[Профиль]  [ЛС] 

Tanja Dietrich

Стаж: 7 лет 1 месяц

Сообщений: 8


Tanja Dietrich · 11-Фев-19 12:17 (спустя 15 часов)

[Цитировать] 

на ноутбуке.Никогда таких проблем не было и нет сейчас с другими фильмами.Дребезжащий звук на протяжении всех серий.
[Профиль]  [ЛС] 

ylnian

Стаж: 8 лет 5 месяцев

Сообщений: 1534

ylnian · 11-Фев-19 17:39 (спустя 5 часов)

[Цитировать] 

Tanja Dietrich писал(а):
76845942на ноутбуке.Никогда таких проблем не было и нет сейчас с другими фильмами.Дребезжащий звук на протяжении всех серий.
Попробуйте через разные видео-плейеры включить. Не все проигрыватели дружат с оригинальным потоком в TS
[Профиль]  [ЛС] 

Tanja Dietrich

Стаж: 7 лет 1 месяц

Сообщений: 8


Tanja Dietrich · 11-Фев-19 21:11 (спустя 3 часа)

[Цитировать] 

Спасибо,я это тоже поняла.
[Профиль]  [ЛС] 
 
Ответить
Loading...
Error