Адрес РуТрекера для пользователей РФ - 11.MainTracker.org

Расскажи друзьям:  

Цветочное танго / Серии: 1-4 из 4 (Александр Грабарь) [2019, мелодрама, HDTVRip 720p]

Страницы:  1

Ответить
Автор
Сообщение

Pigy

RG Русские сериалы

Стаж: 10 лет 3 месяца

Сообщений: 4240

Pigy · 11-Фев-19 10:14 (11 дней назад)

Цветочное танго
Год выпуска: 2019
Производство: Фабула Продакшн
Жанр: мелодрама
Продолжительность: ~00:46:00 серия
Субтитры: нет
Режиссёр: Александр Грабарь
В ролях: Алена Константинова, Денис Васильев, Антон Соколов, Пётр Баранчеев, Анна Полупанова, Ольга Дятловская, Валентина Гарцуева
Описание:
Варя понимает, что ее безмятежная жизнь закончилась, когда разводятся ее родители. В этот трудный момент своей жизни Варя, наконец, соглашается встречаться с Владимиром — сыном депутата, который давно за ней ухаживает. Но вскоре оказывается, что Владимир не только изменял ей с самого начала, но и бросил, как только узнал, что она беременна. Потрясенная происходящим Варя попадает под машину, в которой едут братья Илья и Алексей…

Реклама: Нет.
Кинопоиск
Все раздачи сериала
Sample
Качество: HDTVRip 720p - Nikolspup
Формат: MKV
Видео кодек: H.264
Аудио кодек: AC3
Видео: MPEG4 AVC Video, H264, 16:9, 1280x720, 25 fps, ~4000 kbps, 0.174 bit/pixel
Аудио: AC3 Dolby Digital, 48 kHz, 2/0 (L,R) ch, 192 kbp
MI
General
Unique ID : 214974739795116360439583670495949054315 (0xA1BAA0FD59D0160D92AC85028A67616B)
Complete name : D:\сериалы сид\Cvetochnoe.tango.2019.HDTVRip.(720p).Nikolspup\Cvetochnoe.tango.(01.seriya.iz.02).2019.HDTVRip.(720p).Nikolspup.mkv
Format : Matroska
Format version : Version 4 / Version 2
File size : 2.65 GiB
Duration : 1 h 30 min
Overall bit rate : 4 194 kb/s
Encoded date : UTC 2019-02-11 02:09:27
Writing application : mkvmerge v7.8.0 ('River Man') 32bit built on Mar 27 2015 16:18:02
Writing library : libebml v1.3.1 + libmatroska v1.4.2
Video
ID : 1
Format : AVC
Format/Info : Advanced Video Codec
Format profile : [email protected]
Format settings : CABAC / 9 Ref Frames
Format settings, CABAC : Yes
Format settings, ReFrames : 9 frames
Codec ID : V_MPEG4/ISO/AVC
Duration : 1 h 30 min
Bit rate : 4 000 kb/s
Width : 1 280 pixels
Height : 720 pixels
Display aspect ratio : 16:9
Frame rate mode : Constant
Frame rate : 25.000 FPS
Color space : YUV
Chroma subsampling : 4:2:0
Bit depth : 8 bits
Scan type : Progressive
Bits/(Pixel*Frame) : 0.174
Stream size : 2.52 GiB (95%)
Writing library : x264 core 146 r2538 121396c
Encoding settings : cabac=1 / ref=9 / deblock=1:-2:-1 / analyse=0x3:0x133 / me=umh / subme=9 / psy=1 / psy_rd=1.00:0.20 / mixed_ref=1 / me_range=32 / chroma_me=1 / trellis=2 / 8x8dct=1 / cqm=0 / deadzone=21,11 / fast_pskip=1 / chroma_qp_offset=-3 / threads=12 / lookahead_threads=8 / sliced_threads=0 / nr=0 / decimate=1 / interlaced=0 / bluray_compat=0 / constrained_intra=0 / bframes=11 / b_pyramid=2 / b_adapt=2 / b_bias=0 / direct=1 / weightb=1 / open_gop=0 / weightp=2 / keyint=250 / keyint_min=25 / scenecut=40 / intra_refresh=0 / rc=2pass / mbtree=0 / bitrate=4000 / ratetol=1.0 / qcomp=0.60 / qpmin=0 / qpmax=69 / qpstep=4 / cplxblur=20.0 / qblur=0.5 / ip_ratio=1.40 / pb_ratio=1.30 / aq=3:1.00
Default : No
Forced : No
Color range : Limited
Color primaries : BT.709
Transfer characteristics : BT.709
Matrix coefficients : BT.709
Audio
ID : 2
Format : AC-3
Format/Info : Audio Coding 3
Codec ID : A_AC3
Duration : 1 h 30 min
Bit rate mode : Constant
Bit rate : 192 kb/s
Channel(s) : 2 channels
Channel positions : Front: L R
Sampling rate : 48.0 kHz
Frame rate : 31.250 FPS (1536 SPF)
Bit depth : 16 bits
Compression mode : Lossy
Stream size : 124 MiB (5%)
Language : Russian
Service kind : Complete Main
Default : Yes
Forced : Yes
Скриншоты
Download
Чтобы скачать .torrent файл необходима регистрация
Сайт не распространяет и не хранит электронные версии произведений, а лишь предоставляет доступ к создаваемому пользователями каталогу ссылок на торрент-файлы, которые содержат только списки хеш-сумм
[Профиль]  [ЛС] 
 
 
Ответить
Loading...
Error