Адрес РуТрекера для пользователей РФ - 11.MainTracker.org

Расскажи друзьям:  

Цветочное танго / Серии: 1-4 из 4 (Александр Грабарь) [2019, мелодрама, WEBRip]

Страницы:  1

Ответить
Автор
Сообщение

Pigy

RG Русские сериалы

Стаж: 10 лет 3 месяца

Сообщений: 4240

Pigy · 11-Фев-19 10:16 (11 дней назад)

Цветочное танго
Год выпуска: 2019
Производство: Фабула Продакшн
Жанр: мелодрама
Продолжительность: ~00:46:00 серия
Субтитры: нет
Режиссёр: Александр Грабарь
В ролях: Алена Константинова, Денис Васильев, Антон Соколов, Пётр Баранчеев, Анна Полупанова, Ольга Дятловская, Валентина Гарцуева
Описание:
Варя понимает, что ее безмятежная жизнь закончилась, когда разводятся ее родители. В этот трудный момент своей жизни Варя, наконец, соглашается встречаться с Владимиром — сыном депутата, который давно за ней ухаживает. Но вскоре оказывается, что Владимир не только изменял ей с самого начала, но и бросил, как только узнал, что она беременна. Потрясенная происходящим Варя попадает под машину, в которой едут братья Илья и Алексей…

Реклама: Нет.
Кинопоиск
Все раздачи сериала
Sample
Качество: WEBRip - Files-x
Формат: AVI
Видео кодек: XviD
Аудио кодек: AC3
Видео: 720x400 (1.80:1), 25 fps, XviD build 73 ~1600 kbps avg, 0.222 bit/pixel
Аудио: 48.0 kHz, AC3 Dolby Digital, 2/0 (L,R) ch, ~ 192 kbps
MI
General
Complete name : D:\Цветочное танго (2019). WEBDLRip.Files-x\01. Цветочное танго (2019). WEBDLRip.Files-x.avi
Format : AVI
Format/Info : Audio Video Interleave
File size : 1.18 GiB
Duration : 1 h 33 min
Overall bit rate : 1 801 kb/s
Writing application : VirtualDubMod 1.5.10.3 | www.virtualdub-fr.org || (build 2550/release)
Writing library : VirtualDubMod build 2550/release
Video
ID : 0
Format : MPEG-4 Visual
Format profile : Advanced [email protected]
Format settings : BVOP1 / Custom Matrix
Format settings, BVOP : 1
Format settings, QPel : No
Format settings, GMC : No warppoints
Format settings, Matrix : Custom
Codec ID : XVID
Codec ID/Hint : XviD
Duration : 1 h 33 min
Bit rate : 1 600 kb/s
Width : 720 pixels
Height : 400 pixels
Display aspect ratio : 16:9
Frame rate : 25.000 FPS
Color space : YUV
Chroma subsampling : 4:2:0
Bit depth : 8 bits
Scan type : Progressive
Compression mode : Lossy
Bits/(Pixel*Frame) : 0.222
Stream size : 1.04 GiB (89%)
Writing library : XviD 73
Audio
ID : 1
Format : AC-3
Format/Info : Audio Coding 3
Codec ID : 2000
Duration : 1 h 33 min
Bit rate mode : Constant
Bit rate : 192 kb/s
Channel(s) : 2 channels
Channel positions : Front: L R
Sampling rate : 48.0 kHz
Frame rate : 31.250 FPS (1536 SPF)
Bit depth : 16 bits
Compression mode : Lossy
Stream size : 128 MiB (11%)
Alignment : Split accross interleaves
Interleave, duration : 40 ms (1.00 video frame)
Interleave, preload duratio : 500 ms
Service kind : Complete Main
Скриншоты
Download
Чтобы скачать .torrent файл необходима регистрация
Сайт не распространяет и не хранит электронные версии произведений, а лишь предоставляет доступ к создаваемому пользователями каталогу ссылок на торрент-файлы, которые содержат только списки хеш-сумм
[Профиль]  [ЛС] 
 

Igor1948

Стаж: 8 лет 4 месяца

Сообщений: 349

Igor1948 · 11-Фев-19 13:50 (спустя 3 часа)

[Цитировать] 

Pigy
Спасибо!
[Профиль]  [ЛС] 

AiX_Rein

Стаж: 7 лет 6 месяцев

Сообщений: 40


AiX_Rein · 11-Фев-19 22:09 (спустя 8 часов)

[Цитировать] 

Хороший фильм.
[Профиль]  [ЛС] 
 
Ответить
Loading...
Error