Адрес РуТрекера для пользователей РФ - 11.MainTracker.org

Расскажи друзьям:  

Пекарь и красавица / Серии: 1-9 из 17 (Фёдор Стуков) [2018, комедия, мелодрама, WEBRip 720p]

Страницы:  1

Ответить
Автор
Сообщение

Pigy

RG Русские сериалы

Стаж: 10 лет 3 месяца

Сообщений: 4240

Pigy · 11-Фев-19 13:21 (10 дней назад, ред. 19-Фев-19 12:16)

Пекарь и красавица
Год выпуска: 2018
Производство: Art Pictures Vision, AVK Production
Жанр: комедия, мелодрама
Продолжительность: ~00:24:00 серия
Субтитры: нет
Режиссёр: Фёдор Стуков
В ролях: Анна Чиповская, Никита Волков, Даниил Вахрушев, Джеймс Тратас, Алина Алексеева, Ленни Хейден, Евгения Дмитриева, Алексей Макаров, Артур Ваха, Арарат Кещян, Алексей Розин, Вячеслав Манучаров, Екатерина Воронина, Надежда Игошина, Юлия Сулес, Евгения Ахременко, Ольга Веникова
Описание: Встретив суперзвезду в туалете ресторана, пекарь из Малаховки даже и не подозревал, как изменится его жизнь. Роскошные вечеринки в стиле «Великого Гэтсби», светские тусовки, выходные в Лондоне, вездесущие папарацци и море соблазнов — всё это и не только ждёт простого парня Андрея в мире Саши Лариной. Всё бы ничего, только позади остались оскорблённая экс-подружка, мечтающая о мести, и бывший парень Саши — сексуальный голливудский актёр, в планах которого вернуть Ларину.

Реклама: Нет.
Кинопоиск
Все раздачи сериала
Sample
Качество: WEBRip 720p - Getty
Формат: MKV
Видео кодек: H.264
Аудио кодек: AC3
Видео: MPEG4 AVC Video, H264, 16:9, 1280x720, 25 fps, ~3400 kbps, 0.149 bit/pixel
Аудио: AC3 Dolby Digital, 48.0 kHz, 2/0 (L,R) ch, 192 kbps
Внимание! Раздача ведётся путём добавления новых серий
Раздача ведётся путём добавления новых серий, при каждом добавлении создаётся новый торрент. Чтобы начать докачку новой серии, пользователям необходимо сделать следующее:
- Остановить скачивание.
- Удалить старый торрент у себя из клиента (старые серии удалять не надо).
- Скачать новый торрент и запустить его у себя в клиенте вместо старого, при этом указать клиенту путь в старую папку куда и должно происходить скачивание новых серий.
Ваш клиент при этом должен произвести хеширование (проверку) старой папки (если не производит сам - помогите ему сделать это), и будет докачивать только те серии которых у вас ещё нет. Старые серии при этом не удаляются, а продолжают раздаваться!
Если вы уже удалили старые серии, то предотвратить повторную закачку старых серий можно, отжав галочку в соответствующих местах при запуске нового торрента. По возможности, желательно не удалять старые серии как можно дольше, чтобы релизер не столько продолжал раздавать старые серии, а смог сконцентрироваться на новых.
MI
General
Unique ID : 176079026262339316386466250353259038776 (0x84779640C38E7B96AA03A93D2FAFC838)
Complete name : D:\Pekar.i.krasavitsa.2018.WEB-DL.(720p).Getty\Pekar.i.krasavitsa.e01.2018.WEB-DL.(720p).Getty.mkv
Format : Matroska
Format version : Version 2
File size : 617 MiB
Duration : 23 min 17 s
Overall bit rate mode : Variable
Overall bit rate : 3 705 kb/s
Encoded date : UTC 2019-02-11 09:19:25
Writing application : mkvmerge v4.0.0 ('The Stars were mine') сборка от Jun 6 2010 16:18:42
Writing library : libebml v1.0.0 + libmatroska v1.0.0
Video
ID : 1
Format : AVC
Format/Info : Advanced Video Codec
Format profile : [email protected]
Format settings : CABAC / 5 Ref Frames
Format settings, CABAC : Yes
Format settings, ReFrames : 5 frames
Codec ID : V_MPEG4/ISO/AVC
Duration : 23 min 17 s
Bit rate mode : Variable
Bit rate : 3 439 kb/s
Maximum bit rate : 40.0 Mb/s
Width : 1 280 pixels
Height : 720 pixels
Display aspect ratio : 16:9
Frame rate mode : Constant
Frame rate : 25.000 FPS
Color space : YUV
Chroma subsampling : 4:2:0
Bit depth : 8 bits
Scan type : Progressive
Bits/(Pixel*Frame) : 0.149
Stream size : 573 MiB (93%)
Language : Russian
Default : Yes
Forced : No
Audio
ID : 2
Format : AC-3
Format/Info : Audio Coding 3
Codec ID : A_AC3
Duration : 23 min 17 s
Bit rate mode : Constant
Bit rate : 192 kb/s
Channel(s) : 2 channels
Channel positions : Front: L R
Sampling rate : 48.0 kHz
Frame rate : 31.250 FPS (1536 SPF)
Bit depth : 16 bits
Compression mode : Lossy
Stream size : 32.0 MiB (5%)
Language : Russian
Service kind : Complete Main
Default : Yes
Forced : No
Скриншоты
Download
Чтобы скачать .torrent файл необходима регистрация
Сайт не распространяет и не хранит электронные версии произведений, а лишь предоставляет доступ к создаваемому пользователями каталогу ссылок на торрент-файлы, которые содержат только списки хеш-сумм
[Профиль]  [ЛС] 
 

Pigy

RG Русские сериалы

Стаж: 10 лет 3 месяца

Сообщений: 4240

Pigy · 11-Фев-19 14:00 (спустя 39 мин., ред. 11-Фев-19 14:00)

[Цитировать] 

Добавлены 2-5 серии.


Ориентировочный график выхода серий. Не исключены изменения как это часто бывает у СТС.
[Профиль]  [ЛС] 

PLAYBACK777

Стаж: 7 лет 6 месяцев

Сообщений: 10


PLAYBACK777 · 11-Фев-19 22:06 (спустя 8 часов)

[Цитировать] 

Толку от этой подписки??? =))
Разница в пару-тройку дней, образно говоря.
[Профиль]  [ЛС] 

landdwirt

Стаж: 8 лет 5 месяцев

Сообщений: 112

landdwirt · 17-Фев-19 18:54 (спустя 5 дней)

[Цитировать] 

Сиповская - супер.
[Профиль]  [ЛС] 

tumurgur

Стаж: 6 месяцев

Сообщений: 2

tumurgur · 18-Фев-19 18:27 (спустя 23 часа)

[Цитировать] 

landdwirt писал(а):
76882743Сиповская - супер.
оговорка по фрейду. прикольно
[Профиль]  [ЛС] 

Pigy

RG Русские сериалы

Стаж: 10 лет 3 месяца

Сообщений: 4240

Pigy · 19-Фев-19 12:16 (спустя 17 часов)

[Цитировать] 

Добавлены 6-9 серии.
[Профиль]  [ЛС] 

NikNikolas

Top Bonus 01* 300GB

Стаж: 11 лет 8 месяцев

Сообщений: 14

NikNikolas · 20-Фев-19 22:14 (спустя 1 день 9 часов)

[Цитировать] 

спасибо за раздачу
[Профиль]  [ЛС] 

Михаил16

Стаж: 10 лет 9 месяцев

Сообщений: 112

Михаил16 · 21-Фев-19 14:15 (спустя 16 часов)

[Цитировать] 

Вторичная адаптация посредственного оригинала.
[Профиль]  [ЛС] 

Mariks26

Стаж: 6 лет 5 месяцев

Сообщений: 114

Mariks26 · 21-Фев-19 14:26 (спустя 11 мин.)

[Цитировать] 

Михаил16 писал(а):
76904337Вторичная адаптация посредственного оригинала.
Не стоит смотреть?
[Профиль]  [ЛС] 

profik1976

Стаж: 9 лет 9 месяцев

Сообщений: 172


profik1976 · 21-Фев-19 15:28 (спустя 1 час 2 мин.)

[Цитировать] 

Mariks26 писал(а):
76904398
Михаил16 писал(а):
76904337Вторичная адаптация посредственного оригинала.
Не стоит смотреть?
да норм
[Профиль]  [ЛС] 
 
Ответить
Loading...
Error