Адрес РуТрекера для пользователей РФ - 11.MainTracker.org

Расскажи друзьям:  

Гадалка / Серии: 1-8 из 16 (Илья Казанков) [2019, детектив, триллер, HDTVRip]

Страницы:  1

Ответить
Автор
Сообщение

Pigy

RG Русские сериалы

Стаж: 10 лет 3 месяца

Сообщений: 4240

Pigy · 11-Фев-19 21:32 (10 дней назад, ред. 21-Фев-19 09:47)

Гадалка
Год выпуска: 2019
Производство: ВВП Альянс
Жанр: детектив, триллер
Продолжительность: ~00:46:00 серия
Субтитры: нет
Режиссёр: Илья Казанков
В ролях: Михаил Пореченков, Екатерина Олькина, Яна Крайнова, Юлия Ауг, Дмитрий Репин, Михаил Парыгин, Владимир Капустин, Василий Бочкарёв, Борис Щербаков, Анна Тараторкина, Николай Иванов , Александр Асташёнок, Сергей Губанов, Александр Левин , Константин Воробьёв, Лидия Мельникова, Лилия Лаврова, Евгений Рубаха, Виктория Рунцова, Анастасия Чуева, Игорь Ключников
Описание: В центре сюжета — столичный майор Алексей Потапов и девушка из маленького провинциального городка Люся Некрасова — на первый взгляд, странный тандем, занимающийся расследованием сложных преступлений. Люся — необычная девушка: она видит людей, места, детали преступлений. Описав со стопроцентной точностью место убийства собственной сестры, Некрасова становится незаменимым сотрудником полиции, с чем категорически не согласен ее начальник — Потапов, привыкший верить только неопровержимым фактам, а не каким-то там видениям и предчувствиям. Но вскоре он вынужден признать: ненормальная «гадалка» все чаще оказывается права.

Реклама: Нет.
Кинопоиск
Все раздачи сериала
Sample
Качество: HDTVRip - olegka7373 (GeneralFilm)
Формат: AVI
Видео кодек: XviD
Аудио кодек: AC3
Видео: 720x400 (1.80:1), 25 fps, XviD ~1760 kbps avg, 0.244 bit/pixel
Аудио: 48.0 kHz, AC3 Dolby Digital, 2/0 (L,R) ch, ~ 192 kbps
Внимание! Раздача ведётся путём добавления новых серий
Раздача ведётся путём добавления новых серий, при каждом добавлении создаётся новый торрент. Чтобы начать докачку новой серии, пользователям необходимо сделать следующее:
- Остановить скачивание.
- Удалить старый торрент у себя из клиента (старые серии удалять не надо).
- Скачать новый торрент и запустить его у себя в клиенте вместо старого, при этом указать клиенту путь в старую папку куда и должно происходить скачивание новых серий.
Ваш клиент при этом должен произвести хеширование (проверку) старой папки (если не производит сам - помогите ему сделать это), и будет докачивать только те серии которых у вас ещё нет. Старые серии при этом не удаляются, а продолжают раздаваться!
Если вы уже удалили старые серии, то предотвратить повторную закачку старых серий можно, отжав галочку в соответствующих местах при запуске нового торрента. По возможности, желательно не удалять старые серии как можно дольше, чтобы релизер не столько продолжал раздавать старые серии, а смог сконцентрироваться на новых.
MI
General
Complete name : D:\Gadalka.HDTVRip.GeneralFilm\01.Gadalka.HDTVRip.GeneralFilm.avi
Format : AVI
Format/Info : Audio Video Interleave
File size : 649 MiB
Duration : 46 min 12 s
Overall bit rate : 1 964 kb/s
Video
ID : 0
Format : MPEG-4 Visual
Format profile : Advanced [email protected]
Format settings : BVOP1 / Custom Matrix
Format settings, BVOP : 1
Format settings, QPel : No
Format settings, GMC : No warppoints
Format settings, Matrix : Custom
Codec ID : XVID
Codec ID/Hint : XviD
Duration : 46 min 12 s
Bit rate : 1 760 kb/s
Width : 720 pixels
Height : 400 pixels
Display aspect ratio : 16:9
Frame rate : 25.000 FPS
Color space : YUV
Chroma subsampling : 4:2:0
Bit depth : 8 bits
Scan type : Progressive
Compression mode : Lossy
Bits/(Pixel*Frame) : 0.244
Stream size : 582 MiB (90%)
Writing library : XviD 1.2.1 (UTC 2008-12-04)
Audio
ID : 1
Format : AC-3
Format/Info : Audio Coding 3
Codec ID : 2000
Duration : 46 min 12 s
Bit rate mode : Constant
Bit rate : 192 kb/s
Channel(s) : 2 channels
Channel positions : Front: L R
Sampling rate : 48.0 kHz
Frame rate : 31.250 FPS (1536 SPF)
Bit depth : 16 bits
Compression mode : Lossy
Stream size : 63.5 MiB (10%)
Alignment : Aligned on interleaves
Interleave, duration : 32 ms (0.80 video frame)
Service kind : Complete Main
Скриншоты
Download
Чтобы скачать .torrent файл необходима регистрация
Сайт не распространяет и не хранит электронные версии произведений, а лишь предоставляет доступ к создаваемому пользователями каталогу ссылок на торрент-файлы, которые содержат только списки хеш-сумм
[Профиль]  [ЛС] 
 

n_kotova

Стаж: 9 лет 2 месяца

Сообщений: 22

n_kotova · 12-Фев-19 00:04 (спустя 2 часа 32 мин.)

[Цитировать] 

Спасибо. Подписка.
[Профиль]  [ЛС] 

GenaT

Стаж: 2 года 10 месяцев

Сообщений: 108

GenaT · 12-Фев-19 16:51 (спустя 16 часов)

[Цитировать] 

Спасибо. за формат. Прошлый фильмец с Пореченковым был неплохой, надеюсь и этот не подкачает.
[Профиль]  [ЛС] 

bbxsjuioo

Стаж: 1 год 7 месяцев

Сообщений: 11


bbxsjuioo · 12-Фев-19 19:09 (спустя 2 часа 17 мин., ред. 12-Фев-19 19:09)

[Цитировать] 

GenaT писал(а):
76852995Спасибо. за формат. Прошлый фильмец с Пореченковым был неплохой, надеюсь и этот не подкачает.
К сожалению... . "Мост" с Пореченковым и Дапкунайте очень неплохо получился. Но это... . Дефицит хороших, качественных сценариев. Не хотят вкладыватся. И так скушают. А актерам надо на что то жить, и желательно жить хорошо, а значит сниматся регулярно. Вот и снимаются даже вроде и неплохие актеры во всякой ерунде. Опять же и им вкладыватся в таких "шедеврах" нет смысла. Так... Ремесло которое кормит без особого напряга. Как человек я их конечно могу понять. По настоящему выкладка для актеров, отрыв от реальности, постоянные перевоплощения, все это небезопастно для психофизики. Поэтому срывы, алкоголь, наркотики и т.д. и т.п. Напрягатся не хочется. Но... и искусства нет.
[Профиль]  [ЛС] 

Pigy

RG Русские сериалы

Стаж: 10 лет 3 месяца

Сообщений: 4240

Pigy · 13-Фев-19 10:18 (спустя 15 часов)

[Цитировать] 

+3 серия.
[Профиль]  [ЛС] 

condom_bk

Стаж: 10 лет 1 месяц

Сообщений: 244

condom_bk · 13-Фев-19 19:03 (спустя 8 часов)

[Цитировать] 

bbxsjuioo писал(а):
76853706постоянные перевоплощения, все это небезопастно для психофизики
а вот вражеская агентура, вербующая наших продажных чиновников, с этим справляется.
[Профиль]  [ЛС] 

Pigy

RG Русские сериалы

Стаж: 10 лет 3 месяца

Сообщений: 4240

Pigy · 14-Фев-19 16:12 (спустя 21 час)

[Цитировать] 

+4 серия.
[Профиль]  [ЛС] 

Pancoys

Стаж: 7 лет 1 месяц

Сообщений: 36

Pancoys · 14-Фев-19 19:17 (спустя 3 часа)

[Цитировать] 

И снова Поперченков)
[Профиль]  [ЛС] 

Pigy

RG Русские сериалы

Стаж: 10 лет 3 месяца

Сообщений: 4240

Pigy · 14-Фев-19 21:32 (спустя 2 часа 14 мин.)

[Цитировать] 

+5 серия.
[Профиль]  [ЛС] 

Pigy

RG Русские сериалы

Стаж: 10 лет 3 месяца

Сообщений: 4240

Pigy · 19-Фев-19 19:38 (спустя 4 дня, ред. 19-Фев-19 19:38)

[Цитировать] 

Добавлена 6 серия.
Добавлена 7 серия.
[Профиль]  [ЛС] 

yurpetlos

Стаж: 3 года

Сообщений: 1

yurpetlos · 21-Фев-19 07:44 (спустя 1 день 12 часов)

[Цитировать] 

Когда продолжение? Ждем.
[Профиль]  [ЛС] 

Pigy

RG Русские сериалы

Стаж: 10 лет 3 месяца

Сообщений: 4240

Pigy · 21-Фев-19 09:47 (спустя 2 часа 2 мин.)

[Цитировать] 

Добавлена 8 серия.
[Профиль]  [ЛС] 
 
Ответить
Loading...
Error