Адрес РуТрекера для пользователей РФ - 11.MainTracker.org

Расскажи друзьям:  

Гадалка / Серии: 1-16 из 16 (Илья Казанков) [2019, детектив, триллер, HDTVRip]

Страницы:  1

Ответить
Автор
Сообщение

Pigy

RG Русские сериалы

Стаж: 10 лет 5 месяцев

Сообщений: 4990

Pigy · 11-Фев-19 21:32 (2 месяца 13 дней назад, ред. 06-Мар-19 20:32)

Гадалка
Год выпуска: 2019
Производство: ВВП Альянс
Жанр: детектив, триллер
Продолжительность: ~00:46:00 серия
Субтитры: нет
Режиссёр: Илья Казанков
В ролях: Михаил Пореченков, Екатерина Олькина, Яна Крайнова, Юлия Ауг, Дмитрий Репин, Михаил Парыгин, Владимир Капустин, Василий Бочкарёв, Борис Щербаков, Анна Тараторкина, Николай Иванов , Александр Асташёнок, Сергей Губанов, Александр Левин , Константин Воробьёв, Лидия Мельникова, Лилия Лаврова, Евгений Рубаха, Виктория Рунцова, Анастасия Чуева, Игорь Ключников
Описание: В центре сюжета — столичный майор Алексей Потапов и девушка из маленького провинциального городка Люся Некрасова — на первый взгляд, странный тандем, занимающийся расследованием сложных преступлений. Люся — необычная девушка: она видит людей, места, детали преступлений. Описав со стопроцентной точностью место убийства собственной сестры, Некрасова становится незаменимым сотрудником полиции, с чем категорически не согласен ее начальник — Потапов, привыкший верить только неопровержимым фактам, а не каким-то там видениям и предчувствиям. Но вскоре он вынужден признать: ненормальная «гадалка» все чаще оказывается права.

Реклама: Нет.
Кинопоиск
Все раздачи сериала
Sample
Качество: HDTVRip - olegka7373 (GeneralFilm)
Формат: AVI
Видео кодек: XviD
Аудио кодек: AC3
Видео: 720x400 (1.80:1), 25 fps, XviD ~1760 kbps avg, 0.244 bit/pixel
Аудио: 48.0 kHz, AC3 Dolby Digital, 2/0 (L,R) ch, ~ 192 kbps
Внимание! Раздача ведётся путём добавления новых серий
Раздача ведётся путём добавления новых серий, при каждом добавлении создаётся новый торрент. Чтобы начать докачку новой серии, пользователям необходимо сделать следующее:
- Остановить скачивание.
- Удалить старый торрент у себя из клиента (старые серии удалять не надо).
- Скачать новый торрент и запустить его у себя в клиенте вместо старого, при этом указать клиенту путь в старую папку куда и должно происходить скачивание новых серий.
Ваш клиент при этом должен произвести хеширование (проверку) старой папки (если не производит сам - помогите ему сделать это), и будет докачивать только те серии которых у вас ещё нет. Старые серии при этом не удаляются, а продолжают раздаваться!
Если вы уже удалили старые серии, то предотвратить повторную закачку старых серий можно, отжав галочку в соответствующих местах при запуске нового торрента. По возможности, желательно не удалять старые серии как можно дольше, чтобы релизер не столько продолжал раздавать старые серии, а смог сконцентрироваться на новых.
MI
General
Complete name : D:\Gadalka.HDTVRip.GeneralFilm\01.Gadalka.HDTVRip.GeneralFilm.avi
Format : AVI
Format/Info : Audio Video Interleave
File size : 649 MiB
Duration : 46 min 12 s
Overall bit rate : 1 964 kb/s
Video
ID : 0
Format : MPEG-4 Visual
Format profile : Advanced [email protected]
Format settings : BVOP1 / Custom Matrix
Format settings, BVOP : 1
Format settings, QPel : No
Format settings, GMC : No warppoints
Format settings, Matrix : Custom
Codec ID : XVID
Codec ID/Hint : XviD
Duration : 46 min 12 s
Bit rate : 1 760 kb/s
Width : 720 pixels
Height : 400 pixels
Display aspect ratio : 16:9
Frame rate : 25.000 FPS
Color space : YUV
Chroma subsampling : 4:2:0
Bit depth : 8 bits
Scan type : Progressive
Compression mode : Lossy
Bits/(Pixel*Frame) : 0.244
Stream size : 582 MiB (90%)
Writing library : XviD 1.2.1 (UTC 2008-12-04)
Audio
ID : 1
Format : AC-3
Format/Info : Audio Coding 3
Codec ID : 2000
Duration : 46 min 12 s
Bit rate mode : Constant
Bit rate : 192 kb/s
Channel(s) : 2 channels
Channel positions : Front: L R
Sampling rate : 48.0 kHz
Frame rate : 31.250 FPS (1536 SPF)
Bit depth : 16 bits
Compression mode : Lossy
Stream size : 63.5 MiB (10%)
Alignment : Aligned on interleaves
Interleave, duration : 32 ms (0.80 video frame)
Service kind : Complete Main
Скриншоты
Download
Чтобы скачать .torrent файл необходима регистрация
Сайт не распространяет и не хранит электронные версии произведений, а лишь предоставляет доступ к создаваемому пользователями каталогу ссылок на торрент-файлы, которые содержат только списки хеш-сумм
[Профиль]  [ЛС] 
 

n_kotova

Стаж: 9 лет 5 месяцев

Сообщений: 33

n_kotova · 12-Фев-19 00:04 (спустя 2 часа 32 мин.)

[Цитировать] 

Спасибо. Подписка.
[Профиль]  [ЛС] 

GenaT

Стаж: 3 года 1 месяц

Сообщений: 115

GenaT · 12-Фев-19 16:51 (спустя 16 часов)

[Цитировать] 

Спасибо. за формат. Прошлый фильмец с Пореченковым был неплохой, надеюсь и этот не подкачает.
[Профиль]  [ЛС] 

bbxsjuioo

Стаж: 1 год 9 месяцев

Сообщений: 16


bbxsjuioo · 12-Фев-19 19:09 (спустя 2 часа 17 мин., ред. 28-Мар-19 14:15)

[Цитировать] 

...
[Профиль]  [ЛС] 

Pigy

RG Русские сериалы

Стаж: 10 лет 5 месяцев

Сообщений: 4990

Pigy · 13-Фев-19 10:18 (спустя 15 часов)

[Цитировать] 

+3 серия.
[Профиль]  [ЛС] 

condom_bk

Стаж: 10 лет 3 месяца

Сообщений: 242

condom_bk · 13-Фев-19 19:03 (спустя 8 часов)

[Цитировать] 

bbxsjuioo писал(а):
76853706постоянные перевоплощения, все это небезопастно для психофизики
а вот вражеская агентура, вербующая наших продажных чиновников, с этим справляется.
[Профиль]  [ЛС] 

Pigy

RG Русские сериалы

Стаж: 10 лет 5 месяцев

Сообщений: 4990

Pigy · 14-Фев-19 16:12 (спустя 21 час)

[Цитировать] 

+4 серия.
[Профиль]  [ЛС] 

Pancoys

Стаж: 7 лет 3 месяца

Сообщений: 38

Pancoys · 14-Фев-19 19:17 (спустя 3 часа)

[Цитировать] 

И снова Поперченков)
[Профиль]  [ЛС] 

Pigy

RG Русские сериалы

Стаж: 10 лет 5 месяцев

Сообщений: 4990

Pigy · 14-Фев-19 21:32 (спустя 2 часа 14 мин.)

[Цитировать] 

+5 серия.
[Профиль]  [ЛС] 

Pigy

RG Русские сериалы

Стаж: 10 лет 5 месяцев

Сообщений: 4990

Pigy · 19-Фев-19 19:38 (спустя 4 дня, ред. 19-Фев-19 19:38)

[Цитировать] 

Добавлена 6 серия.
Добавлена 7 серия.
[Профиль]  [ЛС] 

yurpetlos

Стаж: 3 года 2 месяца

Сообщений: 1

yurpetlos · 21-Фев-19 07:44 (спустя 1 день 12 часов)

[Цитировать] 

Когда продолжение? Ждем.
[Профиль]  [ЛС] 

Pigy

RG Русские сериалы

Стаж: 10 лет 5 месяцев

Сообщений: 4990

Pigy · 22-Фев-19 16:47 (спустя 1 день 9 часов, ред. 22-Фев-19 16:47)

[Цитировать] 

Добавлена 8 серия.
Добавлена 9 серия.
[Профиль]  [ЛС] 

Pigy

RG Русские сериалы

Стаж: 10 лет 5 месяцев

Сообщений: 4990

Pigy · 26-Фев-19 19:43 (спустя 4 дня)

[Цитировать] 

Добавлена 11 серия.
[Профиль]  [ЛС] 

AmadeuSS

Стаж: 10 лет 5 месяцев

Сообщений: 155

AmadeuSS · 26-Фев-19 22:02 (спустя 2 часа 19 мин.)

[Цитировать] 

Начинали "за здравие", был потенциал развития по-настоящему интересного сюжета, но все очень быстро сползло в наиграный, дешевый "за упокой".
PS: раздающему - гран мерси за труды.
[Профиль]  [ЛС] 

Pigy

RG Русские сериалы

Стаж: 10 лет 5 месяцев

Сообщений: 4990

Pigy · 01-Мар-19 02:38 (спустя 2 дня 4 часа, ред. 01-Мар-19 02:38)

[Цитировать] 

Добавлена 12 серия.
Добавлена 13 серия.
[Профиль]  [ЛС] 

Петро П'яточкин

Стаж: 2 года 6 месяцев

Сообщений: 4


Петро П'яточкин · 02-Мар-19 22:00 (спустя 1 день 19 часов, ред. 02-Мар-19 22:00)

[Цитировать] 

Миша-Далпайоп?? Не, пасиба.
Сериал - зашквар.
[Профиль]  [ЛС] 

Pigy

RG Русские сериалы

Стаж: 10 лет 5 месяцев

Сообщений: 4990

Pigy · 06-Мар-19 20:32 (спустя 3 дня, ред. 06-Мар-19 20:32)

[Цитировать] 

Добавлена 14 серия.
Добавлена 15 серия.
Добавлена 16 серия.
[Профиль]  [ЛС] 

tata0280

Стаж: 9 лет 7 месяцев

Сообщений: 11

tata0280 · 22-Мар-19 12:48 (спустя 15 дней)

[Цитировать] 

Люблю такие фильмы, и Пореченкова обожаю. Спасибо раздающему
[Профиль]  [ЛС] 
 
Ответить
Loading...
Error