Адрес РуТрекера для пользователей РФ - 11.MainTracker.org

Расскажи друзьям:  

Гадалка / Серии: 1-16 из 16 (Илья Казанков) [2019, детектив, триллер, WEBRip 1080p]

Страницы:  1

Ответить
Автор
Сообщение

Pigy

RG Русские сериалы

Стаж: 10 лет 5 месяцев

Сообщений: 4990

Pigy · 12-Фев-19 05:04 (2 месяца 13 дней назад, ред. 07-Мар-19 08:49)

Гадалка
Год выпуска: 2019
Производство: ВВП Альянс
Жанр: детектив, триллер
Продолжительность: ~00:46:00 серия
Субтитры: нет
Режиссёр: Илья Казанков
В ролях: Михаил Пореченков, Екатерина Олькина, Яна Крайнова, Юлия Ауг, Дмитрий Репин, Михаил Парыгин, Владимир Капустин, Василий Бочкарёв, Борис Щербаков, Анна Тараторкина, Николай Иванов , Александр Асташёнок, Сергей Губанов, Александр Левин , Константин Воробьёв, Лидия Мельникова, Лилия Лаврова, Евгений Рубаха, Виктория Рунцова, Анастасия Чуева, Игорь Ключников
Описание: В центре сюжета — столичный майор Алексей Потапов и девушка из маленького провинциального городка Люся Некрасова — на первый взгляд, странный тандем, занимающийся расследованием сложных преступлений. Люся — необычная девушка: она видит людей, места, детали преступлений. Описав со стопроцентной точностью место убийства собственной сестры, Некрасова становится незаменимым сотрудником полиции, с чем категорически не согласен ее начальник — Потапов, привыкший верить только неопровержимым фактам, а не каким-то там видениям и предчувствиям. Но вскоре он вынужден признать: ненормальная «гадалка» все чаще оказывается права.

Реклама: Нет.
Кинопоиск
Все раздачи сериала
Sample
Качество: WEBRip 1080p - Getty
Формат: MKV
Видео кодек: H.264
Аудио кодек: AC3
Видео: MPEG4 AVC Video, H264, 16:9, 1920x1080, 25 fps, ~4800 kbps, 0.093 bit/pixel
Аудио: AC3 Dolby Digital, 48.0 kHz, 2/0 (L,R) ch, 192 kbps
Внимание! Раздача ведётся путём добавления новых серий
Раздача ведётся путём добавления новых серий, при каждом добавлении создаётся новый торрент. Чтобы начать докачку новой серии, пользователям необходимо сделать следующее:
- Остановить скачивание.
- Удалить старый торрент у себя из клиента (старые серии удалять не надо).
- Скачать новый торрент и запустить его у себя в клиенте вместо старого, при этом указать клиенту путь в старую папку куда и должно происходить скачивание новых серий.
Ваш клиент при этом должен произвести хеширование (проверку) старой папки (если не производит сам - помогите ему сделать это), и будет докачивать только те серии которых у вас ещё нет. Старые серии при этом не удаляются, а продолжают раздаваться!
Если вы уже удалили старые серии, то предотвратить повторную закачку старых серий можно, отжав галочку в соответствующих местах при запуске нового торрента. По возможности, желательно не удалять старые серии как можно дольше, чтобы релизер не столько продолжал раздавать старые серии, а смог сконцентрироваться на новых.
MI
General
Unique ID : 186170201734187226228087528591447185126 (0x8C0F139DD7E5B993A86B4ADFF23656E6)
Complete name : D:\Gadalka.2018.WEB-DL.(1080p).Getty\Gadalka.e01.2018.WEB-DL.(1080p).Getty.mkv
Format : Matroska
Format version : Version 4 / Version 2
File size : 1.61 GiB
Duration : 47 min 31 s
Overall bit rate mode : Constant
Overall bit rate : 4 862 kb/s
Movie name : Gadalka.e01.2018.WEB-DL.(1080p).Getty
Encoded date : UTC 2019-02-11 19:32:20
Writing application : mkvmerge v7.8.0 ('River Man') 32bit built on Mar 27 2015 16:18:02
Writing library : libebml v1.3.1 + libmatroska v1.4.2
Video
ID : 1
Format : AVC
Format/Info : Advanced Video Codec
Format profile : [email protected]
Format settings : CABAC / 4 Ref Frames
Format settings, CABAC : Yes
Format settings, ReFrames : 4 frames
Codec ID : V_MPEG4/ISO/AVC
Duration : 47 min 31 s
Bit rate mode : Constant
Bit rate : 4 800 kb/s
Width : 1 920 pixels
Height : 1 080 pixels
Display aspect ratio : 16:9
Frame rate mode : Constant
Frame rate : 25.000 FPS
Color space : YUV
Chroma subsampling : 4:2:0
Bit depth : 8 bits
Scan type : Progressive
Bits/(Pixel*Frame) : 0.093
Stream size : 1.55 GiB (96%)
Default : Yes
Forced : No
Audio
ID : 2
Format : AC-3
Format/Info : Audio Coding 3
Codec ID : A_AC3
Duration : 47 min 31 s
Bit rate mode : Constant
Bit rate : 192 kb/s
Channel(s) : 2 channels
Channel positions : Front: L R
Sampling rate : 48.0 kHz
Frame rate : 31.250 FPS (1536 SPF)
Bit depth : 16 bits
Compression mode : Lossy
Stream size : 65.3 MiB (4%)
Service kind : Complete Main
Default : Yes
Forced : No
Скриншоты
Download
Чтобы скачать .torrent файл необходима регистрация
Сайт не распространяет и не хранит электронные версии произведений, а лишь предоставляет доступ к создаваемому пользователями каталогу ссылок на торрент-файлы, которые содержат только списки хеш-сумм
[Профиль]  [ЛС] 
 

Pigy

RG Русские сериалы

Стаж: 10 лет 5 месяцев

Сообщений: 4990

Pigy · 15-Фев-19 00:56 (спустя 2 дня 19 часов, ред. 15-Фев-19 00:56)

[Цитировать] 

Добавлены 3-4 серии.
+5 серия.
[Профиль]  [ЛС] 

Хамик55

Стаж: 9 лет 7 месяцев

Сообщений: 1


Хамик55 · 16-Фев-19 10:47 (спустя 1 день 9 часов)

[Цитировать] 

Ваши раздачи всегда замечательные ! Спасибо от души!
[Профиль]  [ЛС] 

Pigy

RG Русские сериалы

Стаж: 10 лет 5 месяцев

Сообщений: 4990

Pigy · 20-Фев-19 00:56 (спустя 3 дня, ред. 20-Фев-19 00:56)

[Цитировать] 

Добавлена 6 серия.
Добавлена 7 серия.
[Профиль]  [ЛС] 

Парасяга

Стаж: 9 лет 8 месяцев

Сообщений: 52


Парасяга · 20-Фев-19 17:00 (спустя 16 часов)

[Цитировать] 

Классный сериал! Спасибо)
[Профиль]  [ЛС] 

касанна

Победители конкурсов

Стаж: 9 лет 3 месяца

Сообщений: 8433

касанна · 21-Фев-19 13:01 (спустя 20 часов)

[Цитировать] 

Стала смотреть первую серию. Сериал мрачный, с тяжелыми видениями главной героини.
Сюжет перекликается с "Анной-детективом", там тоже девушка видит потусторонний мир, а следак не верит этому.
Только в "Анне" сыщик - сухопарный старинный интеллигент, а тут плюшка какая-то.... В общем, Пореченков актер хороший, но не для этой роли.
Стёрла. Раздающему спасибо.
[Профиль]  [ЛС] 

Pigy

RG Русские сериалы

Стаж: 10 лет 5 месяцев

Сообщений: 4990

Pigy · 22-Фев-19 01:30 (спустя 12 часов)

[Цитировать] 

Добавлены 8-9 серии.
[Профиль]  [ЛС] 

neugenev

Стаж: 5 лет 7 месяцев

Сообщений: 78


neugenev · 22-Фев-19 14:58 (спустя 13 часов)

[Цитировать] 

Фильм понравился. Большое спасибо.
[Профиль]  [ЛС] 

Pigy

RG Русские сериалы

Стаж: 10 лет 5 месяцев

Сообщений: 4990

Pigy · 25-Фев-19 23:28 (спустя 3 дня)

[Цитировать] 

Добавлена 10 серия.
[Профиль]  [ЛС] 

zuzin.oleg

Стаж: 3 года 7 месяцев

Сообщений: 11


zuzin.oleg · 26-Фев-19 19:20 (спустя 19 часов)

[Цитировать] 

Спасибо за раздачу
[Профиль]  [ЛС] 

Pigy

RG Русские сериалы

Стаж: 10 лет 5 месяцев

Сообщений: 4990

Pigy · 27-Фев-19 04:20 (спустя 9 часов)

[Цитировать] 

Добавлена 11 серия.
[Профиль]  [ЛС] 

Елена Валентиновна

Стаж: 5 лет 11 месяцев

Сообщений: 60


Елена Валентиновна · 27-Фев-19 07:19 (спустя 2 часа 59 мин.)

[Цитировать] 

только однояйцевые близнецы всегда одного пола , а отпечатки пальцев всех сотрудников обязательно есть в базе данных
[Профиль]  [ЛС] 

Pigy

RG Русские сериалы

Стаж: 10 лет 5 месяцев

Сообщений: 4990

Pigy · 01-Мар-19 02:36 (спустя 1 день 19 часов, ред. 01-Мар-19 02:36)

[Цитировать] 

Добавлена 12 серия.
Добавлена 13 серия.
[Профиль]  [ЛС] 

Pigy

RG Русские сериалы

Стаж: 10 лет 5 месяцев

Сообщений: 4990

Pigy · 07-Мар-19 08:50 (спустя 6 дней, ред. 07-Мар-19 08:50)

[Цитировать] 

Добавлены 14-15 серии.
Добавлена 16 серия.
[Профиль]  [ЛС] 

zuzin.oleg

Стаж: 3 года 7 месяцев

Сообщений: 11


zuzin.oleg · 07-Мар-19 18:31 (спустя 9 часов)

[Цитировать] 

Благодарю
[Профиль]  [ЛС] 
 
Ответить
Loading...
Error