Адрес РуТрекера для пользователей РФ - 11.MainTracker.org

Расскажи друзьям:  

Гранд / Сезон: 2 / Серии: 1-6 из 20 (Дмитрий Грибанов) [2019, комедия, WEBRip 720p]

Страницы:  1

Ответить
Автор
Сообщение

Pigy

RG Русские сериалы

Стаж: 10 лет 4 месяца

Сообщений: 4667

Pigy · 01-Мар-19 16:16 (24 дня назад, ред. 24-Мар-19 18:24)

Гранд
Год выпуска: 2019
Производство: Yellow, Black and White
Жанр: комедия
Продолжительность: ~00:24:00 серия
Субтитры: нет
Режиссёр: Дмитрий Грибанов
В ролях: Григорий Сиятвинда, Мила Сивацкая, Семён Трескунов, Константин Белошапка, Александра Кузенкина, Екатерина Вилкова, Александр Лыков, Владислав Ветров, Наталья Щукина, Михаил Тарабукин, Константин Федоров, Виктор Хориняк, Ольга Кузьмина, Сергей Лавыгин, Жаннат Керимбаев, Анжелика Каширина, Александр Тютин

Описание: Гранд» ждут большие перемены. Его хозяин, Лев Глебович Федотов, привез из отпуска не только новую жену, но и управляющего Станислава. Ревностный поборник должностных инструкций и субординации, за плечами которого остался престижный университет Сиднея и опыт работы в фешенебельном отеле, пытается навести дисциплину среди многочисленных подчиненных. Однако персонал совершенно не воспринимает молодого управленца всерьез. Так что Стасу придется приложить немалые усилия, чтобы пережить саботаж, интриги и выполнить все поручения эксцентричного владельца «Гранда». Ксюше появление нового управляющего приходится как нельзя кстати. Горничная, мечтающая о собственном отеле, придумала очередной способ продвинуться по карьерной лестнице. Впрочем, у девушки появился достойный соперник – новый горничный Владимир Юсупович. Бывший химик, прирожденный педант и искусный обольститель заставит дрогнуть некоторых обитательниц «Гранда», а его мужскую часть – сильно насторожиться. Словом, в новом сезоне коридоры и комнаты отеля будут полны детективных историй и страстей.

Реклама: Нет.
Кинопоиск
Все раздачи сериала
Sample
Качество: WEBRip 720p - Files-x
Формат: MKV
Видео кодек: H.264
Аудио кодек: AC3
Видео: MPEG4 AVC Video, H264, 16:9, 1280x720, 23.976 fps, ~2900 kbps, 0.132 bit/pixel
Аудио: AC3 Dolby Digital, 48.0 kHz, 2/0 (L,R) ch, 192 kbps
Внимание! Раздача ведётся путём добавления новых серий
Раздача ведётся путём добавления новых серий, при каждом добавлении создаётся новый торрент. Чтобы начать докачку новой серии, пользователям необходимо сделать следующее:
- Остановить скачивание.
- Удалить старый торрент у себя из клиента (старые серии удалять не надо).
- Скачать новый торрент и запустить его у себя в клиенте вместо старого, при этом указать клиенту путь в старую папку куда и должно происходить скачивание новых серий.
Ваш клиент при этом должен произвести хеширование (проверку) старой папки (если не производит сам - помогите ему сделать это), и будет докачивать только те серии которых у вас ещё нет. Старые серии при этом не удаляются, а продолжают раздаваться!
Если вы уже удалили старые серии, то предотвратить повторную закачку старых серий можно, отжав галочку в соответствующих местах при запуске нового торрента. По возможности, желательно не удалять старые серии как можно дольше, чтобы релизер не столько продолжал раздавать старые серии, а смог сконцентрироваться на новых.
MI
General
Unique ID : 230290189386646541487269308882306230195 (0xAD4046F4358709EE9EF4BD0AA61467B3)
Complete name : D:\Гранд. (2019) WEB-DL 720p. Files-x\Grand.s02.e01.2019.WEB-DL 720p. Files-x .mkv
Format : Matroska
Format version : Version 2
File size : 542 MiB
Duration : 23 min 49 s
Overall bit rate : 3 182 kb/s
Encoded date : UTC 2019-03-01 12:04:43
Writing application : mkvmerge v7.8.0 ('River Man') 32bit built on Apr 3 2015 12:11:22
Writing library : libebml v1.3.1 + libmatroska v1.4.2
Video
ID : 1
Format : AVC
Format/Info : Advanced Video Codec
Format profile : [email protected]
Format settings : CABAC / 4 Ref Frames
Format settings, CABAC : Yes
Format settings, ReFrames : 4 frames
Codec ID : V_MPEG4/ISO/AVC
Duration : 23 min 49 s
Bit rate : 2 927 kb/s
Width : 1 280 pixels
Height : 720 pixels
Display aspect ratio : 16:9
Frame rate mode : Constant
Frame rate : 23.976 (24000/1001) FPS
Color space : YUV
Chroma subsampling : 4:2:0
Bit depth : 8 bits
Scan type : Progressive
Bits/(Pixel*Frame) : 0.132
Stream size : 499 MiB (92%)
Default : Yes
Forced : No
Audio
ID : 2
Format : AC-3
Format/Info : Audio Coding 3
Codec ID : A_AC3
Duration : 23 min 49 s
Bit rate mode : Constant
Bit rate : 192 kb/s
Channel(s) : 2 channels
Channel positions : Front: L R
Sampling rate : 48.0 kHz
Frame rate : 31.250 FPS (1536 SPF)
Bit depth : 16 bits
Compression mode : Lossy
Stream size : 32.7 MiB (6%)
Service kind : Complete Main
Default : Yes
Forced : No
Скриншоты
Download
Чтобы скачать .torrent файл необходима регистрация
Сайт не распространяет и не хранит электронные версии произведений, а лишь предоставляет доступ к создаваемому пользователями каталогу ссылок на торрент-файлы, которые содержат только списки хеш-сумм
[Профиль]  [ЛС] 
 

newmoon_2010

Стаж: 9 лет 1 месяц

Сообщений: 6


newmoon_2010 · 11-Мар-19 12:24 (спустя 9 дней, ред. 11-Мар-19 12:24)

[Цитировать] 

Pigy
добрый день подскажите а продолжение будите выкладывать?
[Профиль]  [ЛС] 

Pigy

RG Русские сериалы

Стаж: 10 лет 4 месяца

Сообщений: 4667

Pigy · 11-Мар-19 12:34 (спустя 9 мин.)

[Цитировать] 

newmoon_2010 писал(а):
77008035Pigy
добрый день подскажите а продолжение будите выкладывать?
Обязательно.
3 серию обещают 15 марта, график выхода остальных серий пока не известен.
[Профиль]  [ЛС] 

Pigy

RG Русские сериалы

Стаж: 10 лет 4 месяца

Сообщений: 4667

Pigy · 15-Мар-19 17:46 (спустя 4 дня)

[Цитировать] 

Добавлена 3 серия.
[Профиль]  [ЛС] 

Pigy

RG Русские сериалы

Стаж: 10 лет 4 месяца

Сообщений: 4667

Pigy · 24-Мар-19 18:24 (спустя 9 дней, ред. 24-Мар-19 18:24)

[Цитировать] 

Добавлена 4 серия.
Добавлена 5 серия.
Добавлена 6 серия.
[Профиль]  [ЛС] 

Fockler

Стаж: 1 год 4 месяца

Сообщений: 10

Fockler · 25-Мар-19 17:48 (спустя 23 часа)

[Цитировать] 

И когда ты успел? Спасибо за раздачу.
[Профиль]  [ЛС] 
 
Ответить
Loading...
Error