Адрес РуТрекера для пользователей РФ - 11.MainTracker.org

Расскажи друзьям:  

Мертвое озеро / Серии: 1-3 из 8 (Роман Прыгунов) [2019, мистика, детектив, триллер, WEBRip]

Страницы:  1

Ответить
Автор
Сообщение

Pigy

RG Русские сериалы

Стаж: 10 лет 4 месяца

Сообщений: 4667

Pigy · 14-Мар-19 11:00 (12 дней назад, ред. 21-Мар-19 01:51)

Мертвое озеро
Год выпуска: 2019
Производство: TNT Premier Studios, Mediaslovo по заказу телеканала ТВ3
Жанр: мистика, детектив, триллер
Продолжительность: ~00:52:00 серия
Субтитры: нет
Режиссёр: Роман Прыгунов
В ролях: Евгений Цыганов, Павел Табаков, Александра Ребенок, Александр Робак, Андрей Смоляков, Виктор Хориняк, Павел Ворожцов, Лев Прыгунов, Тимофей Трибунцев, Полина Кутепова, Ксения Кутепова, Надежда Михалкова, Кристина Казинская, Михаил Гаврилов , Екатерина Семёнова, Мария Карпова, Мария Перн, Кирилл Полухин
Описание: Владелец урановых рудников Юрий Кобрин — царь и бог в родном Чангадане. Его бизнес идет в гору и кажется, что ничто не может ему помешать. Но однажды дочь олигарха находят мертвой — кто-то использовал ее для обряда ритуального жертвоприношения. Чтобы найти убийцу, Кобрин выписывает из Москвы лучшего детектива — Максима Покровского. То, с чем сталкивается столичный следователь в маленьком северном городке, бросает вызов всему, на что он опирался в своей работе. Покровскому предстоит разобраться в сложном клубке из криминала, корпоративных интриг и мрачных тайн семейства Кобриных.

Реклама: Нет.
Кинопоиск
Все раздачи сериала
Sample
Качество: WEBRip - 25Kuzmich
Формат: AVI
Видео кодек: XviD
Аудио кодек: AC3
Видео: 720x304 (2.35:1), 25 fps, XviD ~1400 kbps avg, 0.254 bit/pixel
Аудио: 48.0 kHz, AC3 Dolby Digital, 2/0 (L,R) ch, ~ 192 kbps
Внимание! Раздача ведётся путём добавления новых серий
Раздача ведётся путём добавления новых серий, при каждом добавлении создаётся новый торрент. Чтобы начать докачку новой серии, пользователям необходимо сделать следующее:
- Остановить скачивание.
- Удалить старый торрент у себя из клиента (старые серии удалять не надо).
- Скачать новый торрент и запустить его у себя в клиенте вместо старого, при этом указать клиенту путь в старую папку куда и должно происходить скачивание новых серий.
Ваш клиент при этом должен произвести хеширование (проверку) старой папки (если не производит сам - помогите ему сделать это), и будет докачивать только те серии которых у вас ещё нет. Старые серии при этом не удаляются, а продолжают раздаваться!
Если вы уже удалили старые серии, то предотвратить повторную закачку старых серий можно, отжав галочку в соответствующих местах при запуске нового торрента. По возможности, желательно не удалять старые серии как можно дольше, чтобы релизер не столько продолжал раздавать старые серии, а смог сконцентрироваться на новых.
MI
General
Complete name : D:\Mertvoe.ozero.2018.WEB-DLRip.25Kuzmich\Mertvoe.ozero.e01.WEB-DLRip.25Kuzmich.avi
Format : AVI
Format/Info : Audio Video Interleave
File size : 600 MiB
Duration : 52 min 42 s
Overall bit rate : 1 593 kb/s
Writing application : VirtualDubMod 1.5.10.3 | www.virtualdub-fr.org || (build 2550/release)
Writing library : VirtualDubMod build 2550/release
Video
ID : 0
Format : MPEG-4 Visual
Format profile : Advanced [email protected]
Format settings : BVOP1
Format settings, BVOP : 1
Format settings, QPel : No
Format settings, GMC : No warppoints
Format settings, Matrix : Default (MPEG)
Codec ID : XVID
Codec ID/Hint : XviD
Duration : 52 min 42 s
Bit rate : 1 391 kb/s
Width : 720 pixels
Height : 304 pixels
Display aspect ratio : 2.35:1
Frame rate : 25.000 FPS
Color space : YUV
Chroma subsampling : 4:2:0
Bit depth : 8 bits
Scan type : Progressive
Compression mode : Lossy
Bits/(Pixel*Frame) : 0.254
Stream size : 524 MiB (87%)
Writing library : XviD 73
Audio
ID : 1
Format : AC-3
Format/Info : Audio Coding 3
Codec ID : 2000
Duration : 52 min 42 s
Bit rate mode : Constant
Bit rate : 192 kb/s
Channel(s) : 2 channels
Channel positions : Front: L R
Sampling rate : 48.0 kHz
Frame rate : 31.250 FPS (1536 SPF)
Bit depth : 16 bits
Compression mode : Lossy
Stream size : 72.4 MiB (12%)
Alignment : Split accross interleaves
Interleave, duration : 40 ms (1.00 video frame)
Interleave, preload duratio : 500 ms
Service kind : Complete Main
Скриншоты
Download
Чтобы скачать .torrent файл необходима регистрация
Сайт не распространяет и не хранит электронные версии произведений, а лишь предоставляет доступ к создаваемому пользователями каталогу ссылок на торрент-файлы, которые содержат только списки хеш-сумм
[Профиль]  [ЛС] 
 

rRaisas

Стаж: 7 лет 6 месяцев

Сообщений: 277


rRaisas · 14-Мар-19 18:02 (спустя 7 часов)

[Цитировать] 

Pigy! Спасибо -ждала
[Профиль]  [ЛС] 

GadskiyPapa1

Стаж: 1 год 1 месяц

Сообщений: 105


GadskiyPapa1 · 14-Мар-19 22:52 (спустя 4 часа, ред. 14-Мар-19 22:52)

[Цитировать] 

Евгений Цыганов-Андрей Смоляков. и т. д.
однако...
[Профиль]  [ЛС] 

metla111

Top Seed 03* 160r

Стаж: 11 лет 7 месяцев

Сообщений: 872

metla111 · 15-Мар-19 22:44 (спустя 23 часа)

[Цитировать] 

Теперь будут цедить по 1-ой серии в неделю
[Профиль]  [ЛС] 

ALYHKA

Стаж: 10 лет 5 месяцев

Сообщений: 92


ALYHKA · 17-Мар-19 08:49 (спустя 1 день 10 часов)

[Цитировать] 

metla111 писал(а):
77036021Теперь будут цедить по 1-ой серии в неделю
да, поскорей бы...
[Профиль]  [ЛС] 

remarka66

Стаж: 9 лет 1 месяц

Сообщений: 1


remarka66 · 17-Мар-19 16:37 (спустя 7 часов)

[Цитировать] 

Что такое "урановые родники"?
Извините)
[Профиль]  [ЛС] 

ladydrexel

Стаж: 7 лет 4 месяца

Сообщений: 2


ladydrexel · 20-Мар-19 22:26 (спустя 3 дня)

[Цитировать] 

Первая серия ниче так) Главное чтоб дальше было в том же стиле...
[Профиль]  [ЛС] 

Diamon1

Стаж: 11 лет 4 месяца

Сообщений: 160

Diamon1 · 21-Мар-19 00:17 (спустя 1 час 51 мин.)

[Цитировать] 

А когда вторая серия?
[Профиль]  [ЛС] 

Pigy

RG Русские сериалы

Стаж: 10 лет 4 месяца

Сообщений: 4667

Pigy · 21-Мар-19 01:52 (спустя 1 час 34 мин.)

[Цитировать] 

Добавлены 2-3 серии.
4 и 5 серии ожидаются в следующий четверг 28 марта.
[Профиль]  [ЛС] 

Болзен

Стаж: 8 лет 4 месяца

Сообщений: 118

Болзен · 21-Мар-19 07:08 (спустя 5 часов)

[Цитировать] 

Благодарю, Pigy.
[Профиль]  [ЛС] 

Redactor84

Стаж: 6 лет

Сообщений: 4

Redactor84 · 25-Мар-19 09:51 (спустя 4 дня)

[Цитировать] 

ну могут ведь,когда захотят)
[Профиль]  [ЛС] 

n1008

Стаж: 8 лет 5 месяцев

Сообщений: 186


n1008 · 26-Мар-19 08:52 (спустя 23 часа)

[Цитировать] 

Вдохновлённые твин пиксом.. неплохо, первая серия интригует
[Профиль]  [ЛС] 
 
Ответить
Loading...
Error