Адрес РуТрекера для пользователей РФ - 11.MainTracker.org

Расскажи друзьям:  

Адрес РуТрекера для пользователей РФ - 11.MainTracker.org

Расскажи друзьям:  

Полтора шпиона / Central Intelligence (Роусон Маршалл Тёрбер / Rawson Marshall Thurber) [2016, США, боевик, комедия, криминал, UHD BDRemux 2160p] [Theatrical Cut] Dub + Original (Eng) + Sub (Rus, Eng)

Страницы:  1
Ответить
 

arxivariys

Top Best

Стаж: 10 лет 1 месяц

Сообщений: 2312

arxivariys · 21-Апр-19 11:51 (6 месяцев назад, ред. 21-Апр-19 11:56)

Полтора шпиона / Central Intelligence


Страна: США
Студия: New Line Cinema, Bluegrass Films, Principato-Young Entertainment
Жанр: боевик, комедия, криминал
Год выпуска: 2016
Продолжительность: 01:47:36

Перевод: Профессиональный (дублированный) Blu-Ray
Субтитры: русские (forced, full), английские
Оригинальная аудиодорожка: английский

Режиссер: Роусон Маршалл Тёрбер / Rawson Marshall Thurber
В ролях: Дуэйн Джонсон, Кевин Харт, Эми Райан, Даниэль Николет, Джейсон Бейтман, Аарон Пол, Райан Хансен, Тим Гриффин, Тимоти Джон Смит, Сион Келепи

Описание: От лайка в соцсети до спасения мира — один шаг. Сегодня ты френдишь бывшего одноклассника, а завтра — он тащит тебя под пули. Кто ж знал, что заядлый любитель пончиков превратится в похожего на скалу супершпиона.

imdb | kinopoisk | Сэмпл

Тип релиза: UHD BDRemux 2160p [Central Intelligence 2016 2in1 2160p UHD Blu-ray HEVC DTS-HD MA 5.1-TERMiNAL]
Контейнер: MKV
Видео: MPEG-H HEVC Video / 50267 kbps / 3840x2160 / 23,976 fps / 16:9 / Main 10 @ Level 5.1 @ High / 4:2:0 / 10 bits / HDR10 / Limited Range / BT.2020
Аудио 1: Russian DTS / 5.1 / 48 kHz / 768 kbps / 24-bit |Dub, Blu-Ray|
Аудио 2: English DTS-HD Master Audio / 5.1 / 48 kHz / 3712 kbps / 24-bit (DTS Core: 5.1 / 48 kHz / 1509 kbps / 24-bit) |original|
Формат субтитров: softsub [SRT]
MediaInfo
Код:
Общее
Уникальный идентификатор                 : 191291890825826293889705566085888314023 (0x8FE97A628865E387C6E0CAA7A4538AA7)
Полное имя                               : H:\UHD\Полтора шпиона.2016.UHD.Blu-Ray.Remux.2160p .mkv
Формат                                   : Matroska
Версия формата                           : Version 4
Размер файла                             : 41,2 Гбайт
Продолжительность                        : 1 ч. 47 м.
Режим общего битрейта                    : Переменный
Общий поток                              : 54,8 Мбит/сек
Дата кодирования                         : UTC 2019-04-21 08:08:05
Программа кодирования                    : mkvmerge v33.1.0 ('Primrose') 64-bit
Библиотека кодирования                   : libebml v1.3.7 + libmatroska v1.5.0
Attachments                              : poster.jpg
Видео
Идентификатор                            : 1
Формат                                   : HEVC
Формат/Информация                        : High Efficiency Video Coding
Коммерческое название                    : HDR10
Профиль формата                          : Main 10@L5.1@High
Идентификатор кодека                     : V_MPEGH/ISO/HEVC
Продолжительность                        : 1 ч. 47 м.
Битрейт                                  : 50,3 Мбит/сек
Ширина                                   : 3840 пикселей
Высота                                   : 2160 пикселей
Соотношение сторон                       : 16:9
Режим частоты кадров                     : Постоянный
Частота кадров                           : 23,976 (24000/1001) кадра/сек
Цветовое пространство                    : YUV
Субдискретизация насыщенности            : 4:2:0 (Type 2)
Битовая глубина                          : 10 бит
Бит/(Пиксели*Кадры)                      : 0.253
Размер потока                            : 37,8 Гбайт (92%)
Default                                  : Да
Forced                                   : Нет
Цветовой диапазон                        : Limited
Основные цвета                           : BT.2020
Характеристики трансфера                 : PQ
Коэффициенты матрицы                     : BT.2020 non-constant
MasteringDisplay_ColorPrimaries          : Display P3
MasteringDisplay_Luminance               : min: 0.0050 cd/m2, max: 4000 cd/m2
MaxCLL                                   : 2084 cd/m2
MaxFALL                                  : 892 cd/m2
Аудио #1
Идентификатор                            : 2
Формат                                   : DTS
Формат/Информация                        : Digital Theater Systems
Идентификатор кодека                     : A_DTS
Продолжительность                        : 1 ч. 47 м.
Вид битрейта                             : Постоянный
Битрейт                                  : 768 Кбит/сек
Каналы                                   : 6 каналов
Channel layout                           : C L R Ls Rs LFE
Частота                                  : 48,0 КГц
Частота кадров                           : 93,750 кадра/сек (512 SPF)
Битовая глубина                          : 24 бит
Метод сжатия                             : С потерями
Размер потока                            : 591 Мбайт (1%)
Заголовок                                : Dub, Blu-Ray
Язык                                     : Russian
Default                                  : Да
Forced                                   : Нет
Аудио #2
Идентификатор                            : 3
Формат                                   : DTS XLL
Формат/Информация                        : Digital Theater Systems
Коммерческое название                    : DTS-HD Master Audio
Идентификатор кодека                     : A_DTS
Продолжительность                        : 1 ч. 47 м.
Вид битрейта                             : Переменный
Битрейт                                  : 3712 Кбит/сек
Каналы                                   : 6 каналов
Channel layout                           : C L R Ls Rs LFE
Частота                                  : 48,0 КГц
Частота кадров                           : 93,750 кадра/сек (512 SPF)
Битовая глубина                          : 24 бит
Метод сжатия                             : Без потерь
Размер потока                            : 2,79 Гбайт (7%)
Язык                                     : English
Default                                  : Нет
Forced                                   : Нет
Текст #1
Идентификатор                            : 4
Формат                                   : UTF-8
Идентификатор кодека                     : S_TEXT/UTF8
Идентификатор кодека/Информация          : UTF-8 Plain Text
Продолжительность                        : 1 ч. 38 м.
Битрейт                                  : 4 бит/сек
ElementCount                             : 62
Размер потока                            : 3,08 Кбайт (0%)
Заголовок                                : forced
Язык                                     : Russian
Default                                  : Да
Forced                                   : Нет
Текст #2
Идентификатор                            : 5
Формат                                   : UTF-8
Идентификатор кодека                     : S_TEXT/UTF8
Идентификатор кодека/Информация          : UTF-8 Plain Text
Продолжительность                        : 1 ч. 46 м.
Битрейт                                  : 138 бит/сек
ElementCount                             : 2048
Размер потока                            : 108 Кбайт (0%)
Заголовок                                : full
Язык                                     : Russian
Default                                  : Нет
Forced                                   : Нет
Текст #3
Идентификатор                            : 6
Формат                                   : UTF-8
Идентификатор кодека                     : S_TEXT/UTF8
Идентификатор кодека/Информация          : UTF-8 Plain Text
Продолжительность                        : 1 ч. 45 м.
Битрейт                                  : 91 бит/сек
ElementCount                             : 2398
Размер потока                            : 71,1 Кбайт (0%)
Язык                                     : English
Default                                  : Нет
Forced                                   : Нет
Меню
00:00:00.000                             : :Chapter 01
00:09:11.050                             : :Chapter 02
00:20:10.751                             : :Chapter 03
00:30:30.078                             : :Chapter 04
00:43:20.764                             : :Chapter 05
00:52:41.491                             : :Chapter 06
00:58:08.860                             : :Chapter 07
01:10:11.457                             : :Chapter 08
01:18:35.752                             : :Chapter 09
01:28:55.288                             : :Chapter 10
01:39:31.256                             : :Chapter 11
Скриншоты
Дополнительно
Цитата:
Русская дорожка и субтитры взяты с этой раздачи thx: kingsize87
Download
Сайт не распространяет и не хранит электронные версии произведений, а лишь предоставляет доступ к создаваемому пользователями каталогу ссылок на торрент-файлы, которые содержат только списки хеш-сумм
Как скачивать? (для скачивания .torrent файлов необходима регистрация)
[Профиль]  [ЛС] 

bot · 21-Апр-19 11:53 (спустя 2 мин.)

Тема была перенесена из форума Оформление раздач (Группа "Top Seed") в форум HD Video
arxivariys
 

bot · 24-Апр-19 03:05 (спустя 2 дня 15 часов)

Тема была перенесена из форума HD Video в форум UHD Video
porvaliparus
 

Berzerk777

Стаж: 12 лет 4 месяца

Сообщений: 9


Berzerk777 · 24-Апр-19 12:59 (спустя 3 дня)

Наконец-то, смогу посмотреть 4К в нормальном формате на 4К телевизоре, а не компе! У меня 2 телевизора 4К, и оба не читают DVD-фильмы, расшаренные с компьютера по Ethernet-сети. С рипами в формате mkv проблем нет.
[Профиль]  [ЛС] 

Egiukaz

Стаж: 9 лет 7 месяцев

Сообщений: 1


Egiukaz · 18-Июн-19 13:26 (спустя 1 месяц 24 дня)

Berzerk777 писал(а):
77260476Наконец-то, смогу посмотреть 4К в нормальном формате на 4К телевизоре, а не компе! У меня 2 телевизора 4К, и оба не читают DVD-фильмы, расшаренные с компьютера по Ethernet-сети. С рипами в формате mkv проблем нет.
на https://4kmedia.org/real-or-fake-4k/ : Central Intelligence – Fake 4K, HDR
[Профиль]  [ЛС] 

arxivariys

Top Best

Стаж: 10 лет 1 месяц

Сообщений: 2312

arxivariys · 18-Июн-19 17:00 (спустя 3 часа)

Egiukaz писал(а):
77547911
Berzerk777 писал(а):
77260476Наконец-то, смогу посмотреть 4К в нормальном формате на 4К телевизоре, а не компе! У меня 2 телевизора 4К, и оба не читают DVD-фильмы, расшаренные с компьютера по Ethernet-сети. С рипами в формате mkv проблем нет.
на https://4kmedia.org/real-or-fake-4k/ : Central Intelligence – Fake 4K, HDR
И что. Больше половины дисков UHD имеют мастер 2К, а все равно выглядят лучше чем блюрей.
[Профиль]  [ЛС] 
 
Ответить
Loading...
Error