Адрес РуТрекера для пользователей РФ - 11.MainTracker.org

Расскажи друзьям:  

Адрес РуТрекера для пользователей РФ - 11.MainTracker.org

Расскажи друзьям:  

Зеленая книга / Green Book (Питер Фаррелли / Peter Farrelly) [2018, США, комедия, драма, биография, UHD BDRemux 2160p] Dub + MVO + VO + Original (Eng) + Sub (Rus, Eng)

Страницы:  1
Ответить
 

arxivariys

Top Best

Стаж: 10 лет 1 месяц

Сообщений: 2312

arxivariys · 09-Июн-19 21:04 (4 месяца 12 дней назад, ред. 21-Сен-19 15:36)

Зеленая книга / Green Book


Страна: США
Студия: Amblin Partners, Cinetic Media, DreamWorks SKG, Innisfree Pictures, Louisiana Entertainment, Participant Media, Storyteller Distribution, Wessler Entertainment
Жанр: комедия, драма, биография
Год выпуска: 2018
Продолжительность: 02:10:04

Перевод 1: Профессиональный (дублированный) Blu-Ray
Перевод 2: Любительский (многоголосый закадровый) HDRezka Studio
Перевод 3: Одноголосый закадровый Д. Есарев
Субтитры: русские (forced, full - 2 вида), английские (full, SDH, SDH-Colored)
Оригинальная аудиодорожка: английский

Режиссер: Питер Фаррелли / Peter Farrelly
В ролях: Вигго Мортенсен, Махершала Али, Линда Карделлини, Себастьян Манискалко, Димитар Маринов, Майк Хаттон, П.Дж. Бирн, Джозеф Кортезе, Мэгги Никсон, Фон Льюис, Джон Сортлэнд, Дон Старк

Описание: Утонченный светский лев, богатый и талантливый музыкант нанимает в качестве водителя и телохранителя человека, который менее всего подходит для этой работы. Тони по прозвищу Болтун — вышибала, не умеющий держать рот на замке и пользоваться столовыми приборами, зато он хорошо работает кулаками. Это турне навсегда изменит жизнь обоих.

imdb | kinopoisk | Сэмпл

Тип релиза: UHD BDRemux 2160p [Green Book 2018 2160p UHD Blu-ray HEVC TrueHD 7.1-BeyondHD]
Контейнер: MKV
Видео: MPEG-H HEVC Video / 52600 kbps / 3840x2160 / 23.976 fps / 16:9 / Main 10 @ Level 5.1 @ High / 4:2:0 / 10 bits / HDR10 / BT.2020 /
Аудио 1: Russian DTS-HD Master Audio / 5.1 / 48 kHz / 3393 kbps / 24-bit (DTS Core: 5.1 / 48 kHz / 1509 kbps / 24-bit) |Dub, Blu-Ray|
Аудио 2: Russian AC3 / 2.0 / 48 kHz / 192 kbps / 16 bits |MVO, HDRezka Studio|
Аудио 3: Russian DTS-HD Master Audio / 7.1 / 48 kHz / 4704 kbps / 24-bit (DTS Core: 5.1 / 48 kHz / 1509 kbps / 24-bit) |Д. Есарев|
Аудио 4: English Dolby TrueHD/Atmos Audio / 7.1-Atmos / 48 kHz / 4232 kbps / 24-bit |original|
Аудио 5: English AC3 Core: 5.1 / 48 kHz / 448 kbps |original|
Формат субтитров: softsub [SRT]
MediaInfo
Код:
Общее
Уникальный идентификатор                 : 280418829615059600123010871090264816334 (0xD2F6B3BC56A41908016E0BC0D89A3ACE)
Полное имя                               : H:\UHD\Зеленая книга.2018.UHD.Blu-Ray.Remux.2160p.mkv
Формат                                   : Matroska
Версия формата                           : Version 4
Размер файла                             : 59,2 Гбайт
Продолжительность                        : 2 ч. 10 м.
Режим общего битрейта                    : Переменный
Общий поток                              : 65,2 Мбит/сек
Дата кодирования                         : UTC 2019-06-09 17:55:39
Программа кодирования                    : mkvmerge v34.0.0 ('Sight and Seen') 64-bit
Библиотека кодирования                   : libebml v1.3.7 + libmatroska v1.5.0
Attachments                              : poster.jpg
Видео
Идентификатор                            : 1
Формат                                   : HEVC
Формат/Информация                        : High Efficiency Video Coding
Коммерческое название                    : HDR10
Профиль формата                          : Main 10@L5.1@High
Идентификатор кодека                     : V_MPEGH/ISO/HEVC
Продолжительность                        : 2 ч. 10 м.
Битрейт                                  : 52,6 Мбит/сек
Ширина                                   : 3840 пикселей
Высота                                   : 2160 пикселей
Соотношение сторон                       : 16:9
Режим частоты кадров                     : Постоянный
Частота кадров                           : 23,976 (24000/1001) кадра/сек
Цветовое пространство                    : YUV
Субдискретизация насыщенности            : 4:2:0 (Type 2)
Битовая глубина                          : 10 бит
Бит/(Пиксели*Кадры)                      : 0.265
Размер потока                            : 47,8 Гбайт (81%)
Default                                  : Да
Forced                                   : Нет
Цветовой диапазон                        : Limited
Основные цвета                           : BT.2020
Характеристики трансфера                 : PQ
Коэффициенты матрицы                     : BT.2020 non-constant
MasteringDisplay_ColorPrimaries          : Display P3
MasteringDisplay_Luminance               : min: 0.0050 cd/m2, max: 1000 cd/m2
MaxCLL                                   : 717 cd/m2
MaxFALL                                  : 168 cd/m2
Аудио #1
Идентификатор                            : 2
Формат                                   : DTS XLL
Формат/Информация                        : Digital Theater Systems
Коммерческое название                    : DTS-HD Master Audio
Идентификатор кодека                     : A_DTS
Продолжительность                        : 2 ч. 10 м.
Вид битрейта                             : Переменный
Битрейт                                  : 3393 Кбит/сек
Каналы                                   : 6 каналов
Channel layout                           : C L R Ls Rs LFE
Частота                                  : 48,0 КГц
Частота кадров                           : 93,750 кадра/сек (512 SPF)
Битовая глубина                          : 24 бит
Метод сжатия                             : Без потерь
Размер потока                            : 3,08 Гбайт (5%)
Заголовок                                : Dub, Blu-Ray
Язык                                     : Russian
Default                                  : Да
Forced                                   : Нет
Аудио #2
Идентификатор                            : 3
Формат                                   : AC-3
Формат/Информация                        : Audio Coding 3
Коммерческое название                    : Dolby Digital
Идентификатор кодека                     : A_AC3
Продолжительность                        : 2 ч. 10 м.
Вид битрейта                             : Постоянный
Битрейт                                  : 192 Кбит/сек
Каналы                                   : 2 канала
Channel layout                           : L R
Частота                                  : 48,0 КГц
Частота кадров                           : 31,250 кадров/сек (1536 SPF)
Битовая глубина                          : 16 бит
Метод сжатия                             : С потерями
Размер потока                            : 179 Мбайт (0%)
Заголовок                                : MVO, HDRezka Studio
Язык                                     : Russian
ServiceKind/String                       : Complete Main
Default                                  : Нет
Forced                                   : Нет
Аудио #3
Идентификатор                            : 4
Формат                                   : DTS XLL
Формат/Информация                        : Digital Theater Systems
Коммерческое название                    : DTS-HD Master Audio
Идентификатор кодека                     : A_DTS
Продолжительность                        : 2 ч. 10 м.
Вид битрейта                             : Переменный
Битрейт                                  : 4704 Кбит/сек
Каналы                                   : 8 каналов
Channel layout                           : C L R LFE Lb Rb Lss Rss
Частота                                  : 48,0 КГц
Частота кадров                           : 93,750 кадра/сек (512 SPF)
Битовая глубина                          : 24 бит
Метод сжатия                             : Без потерь
Размер потока                            : 4,27 Гбайт (7%)
Заголовок                                : Д. Есарев
Язык                                     : Russian
Default                                  : Нет
Forced                                   : Нет
Аудио #4
Идентификатор                            : 5
Формат                                   : MLP FBA 16-ch
Формат/Информация                        : Meridian Lossless Packing FBA with 16-channel presentation
Коммерческое название                    : Dolby TrueHD with Dolby Atmos
Идентификатор кодека                     : A_TRUEHD
Продолжительность                        : 2 ч. 10 м.
Вид битрейта                             : Переменный
Битрейт                                  : 3784 Кбит/сек
Максимальный битрейт                     : 7086 Кбит/сек
Каналы                                   : 8 каналов
Channel layout                           : L R C LFE Ls Rs Lb Rb
Частота                                  : 48,0 КГц
Частота кадров                           : 1200,000 кадров/сек (40 SPF)
Метод сжатия                             : Без потерь
Размер потока                            : 3,44 Гбайт (6%)
Язык                                     : English
Default                                  : Нет
Forced                                   : Нет
Number of dynamic objects                : 11
Bed channel count                        : 1 канал
Bed channel configuration                : LFE
Аудио #5
Идентификатор                            : 6
Формат                                   : AC-3
Формат/Информация                        : Audio Coding 3
Коммерческое название                    : Dolby Digital
Идентификатор кодека                     : A_AC3
Продолжительность                        : 2 ч. 10 м.
Вид битрейта                             : Постоянный
Битрейт                                  : 448 Кбит/сек
Каналы                                   : 6 каналов
Channel layout                           : L R C LFE Ls Rs
Частота                                  : 48,0 КГц
Частота кадров                           : 31,250 кадров/сек (1536 SPF)
Битовая глубина                          : 16 бит
Метод сжатия                             : С потерями
Размер потока                            : 417 Мбайт (1%)
Язык                                     : English
ServiceKind/String                       : Complete Main
Default                                  : Нет
Forced                                   : Нет
Текст #1
Идентификатор                            : 7
Формат                                   : UTF-8
Идентификатор кодека                     : S_TEXT/UTF8
Идентификатор кодека/Информация          : UTF-8 Plain Text
Продолжительность                        : 1 ч. 11 м.
Битрейт                                  : 2 бит/сек
ElementCount                             : 26
Размер потока                            : 1,40 Кбайт (0%)
Заголовок                                : forced
Язык                                     : Russian
Default                                  : Да
Forced                                   : Нет
Текст #2
Идентификатор                            : 8
Формат                                   : UTF-8
Идентификатор кодека                     : S_TEXT/UTF8
Идентификатор кодека/Информация          : UTF-8 Plain Text
Продолжительность                        : 2 ч. 3 м.
Битрейт                                  : 97 бит/сек
ElementCount                             : 2056
Размер потока                            : 88,3 Кбайт (0%)
Заголовок                                : Blu-Ray
Язык                                     : Russian
Default                                  : Нет
Forced                                   : Нет
Текст #3
Идентификатор                            : 9
Формат                                   : UTF-8
Идентификатор кодека                     : S_TEXT/UTF8
Идентификатор кодека/Информация          : UTF-8 Plain Text
Продолжительность                        : 2 ч. 0 м.
Битрейт                                  : 102 бит/сек
ElementCount                             : 1406
Размер потока                            : 90,4 Кбайт (0%)
Заголовок                                : full v2
Язык                                     : Russian
Default                                  : Нет
Forced                                   : Нет
Текст #4
Идентификатор                            : 10
Формат                                   : UTF-8
Идентификатор кодека                     : S_TEXT/UTF8
Идентификатор кодека/Информация          : UTF-8 Plain Text
Продолжительность                        : 2 ч. 7 м.
Битрейт                                  : 64 бит/сек
ElementCount                             : 2115
Размер потока                            : 60,5 Кбайт (0%)
Заголовок                                : full
Язык                                     : English
Default                                  : Нет
Forced                                   : Нет
Текст #5
Идентификатор                            : 11
Формат                                   : UTF-8
Идентификатор кодека                     : S_TEXT/UTF8
Идентификатор кодека/Информация          : UTF-8 Plain Text
Продолжительность                        : 2 ч. 9 м.
Битрейт                                  : 69 бит/сек
ElementCount                             : 2389
Размер потока                            : 66,4 Кбайт (0%)
Заголовок                                : SDH
Язык                                     : English
Default                                  : Нет
Forced                                   : Нет
Текст #6
Идентификатор                            : 12
Формат                                   : UTF-8
Идентификатор кодека                     : S_TEXT/UTF8
Идентификатор кодека/Информация          : UTF-8 Plain Text
Продолжительность                        : 2 ч. 9 м.
Битрейт                                  : 92 бит/сек
ElementCount                             : 2391
Размер потока                            : 88,2 Кбайт (0%)
Заголовок                                : SDH-Colored
Язык                                     : English
Default                                  : Нет
Forced                                   : Нет
Меню
00:00:00.000                             : :Chapter 01
00:05:43.009                             : :Chapter 02
00:11:50.042                             : :Chapter 03
00:18:17.805                             : :Chapter 04
00:23:46.675                             : :Chapter 05
00:28:37.382                             : :Chapter 06
00:34:38.785                             : :Chapter 07
00:41:13.304                             : :Chapter 08
00:46:44.593                             : :Chapter 09
00:54:19.172                             : :Chapter 10
01:02:42.341                             : :Chapter 11
01:10:42.655                             : :Chapter 12
01:16:16.154                             : :Chapter 13
01:24:30.273                             : :Chapter 14
01:30:37.723                             : :Chapter 15
01:36:53.265                             : :Chapter 16
01:44:56.081                             : :Chapter 17
01:51:12.123                             : :Chapter 18
01:54:38.872                             : :Chapter 19
02:02:25.504                             : :Chapter 20
Скриншоты
Дополнительно
Цитата:
Дорожка №1 взята с этой раздачи thx: vlaa8
За диск спасибо BLUEBIRD-HD
Цитата:
Дорожка №2 взята с этой раздачи thx: dalemake
Цитата:
Перевод Дмитрия Есарева доступен благодаря: Lecter1975, Pr0peLLer, Glaucoma, braindrill, igrok2012, stimco, shagrath88, miklob, mestereo2110, VitVill, garik123, Malyshandro, Battemen, gamlet75, iNstIGGAtor, Loki1982, DaviD18_85, 3k, Литти.
Работа со звуком и постер от Переводман.
Download
Сайт не распространяет и не хранит электронные версии произведений, а лишь предоставляет доступ к создаваемому пользователями каталогу ссылок на торрент-файлы, которые содержат только списки хеш-сумм
Как скачивать? (для скачивания .torrent файлов необходима регистрация)
[Профиль]  [ЛС] 

bot · 09-Июн-19 22:47 (спустя 1 час 43 мин.)

Тема была перенесена из форума Оформление раздач (Группа "Top Seed") в форум HD Video
arxivariys
 

bot · 10-Июн-19 15:18 (спустя 18 часов)

Тема была перенесена из форума HD Video в форум UHD Video
porvaliparus
 

leeekaaa1989

Стаж: 5 лет 2 месяца

Сообщений: 679

leeekaaa1989 · 18-Июн-19 18:03 (спустя 8 дней, ред. 19-Июн-19 18:23)

фильм дерьмище. жаль потраченного времени
PS: в который раз убеждаюсь что Оскар - худшая из ныне существующих наград.
Артхаус - вот где шедевры, а не вот это всё.
[Профиль]  [ЛС] 

ArYrI

Стаж: 10 лет 7 месяцев

Сообщений: 47


ArYrI · 18-Июн-19 23:51 (спустя 5 часов)

ну не дерьмище ....но 1+1 глубже, шире, тоньше...а если Вы не смотрели или Вам ну очень понравилась 1+1, то можно и посмотреть
Но эффект от 4К для меня - ну никак (как).
[Профиль]  [ЛС] 

serg66688

Стаж: 9 лет 3 месяца

Сообщений: 1


serg66688 · 15-Авг-19 20:58 (спустя 1 месяц 26 дней)

Добрый вечер,скажите а появится ли тут озвучка Дмитрия Пучкова (Гоблина) ?
[Профиль]  [ЛС] 

AMBROZI1

Стаж: 12 лет 6 месяцев

Сообщений: 874

AMBROZI1 · 11-Окт-19 01:16 (спустя 1 месяц 26 дней)

Шикарный фильм. Очень красиво поставлен кадр, сюжет на высоте как и актерская игра. Смотреть в оригинале как и музыку.
[Профиль]  [ЛС] 

aron-16

Стаж: 9 лет 7 месяцев

Сообщений: 246

aron-16 · 11-Окт-19 20:06 (спустя 18 часов)

Мне тоже понравился фильм
[Профиль]  [ЛС] 

AMBROZI1

Стаж: 12 лет 6 месяцев

Сообщений: 874

AMBROZI1 · 15-Окт-19 22:57 (спустя 4 дня, ред. 15-Окт-19 22:57)

Green Book – Fake 4K, HDR https://4kmedia.org/real-or-fake-4k/2/
Не намного лучше блюра, очень много темных сцен. Жаль, что такое кино на пленку не снимают.
[Профиль]  [ЛС] 
 
Ответить
Loading...
Error